&title=Light up my LOVE!!
&artist=Moco/onoken
&first=0.05
&des=KOL_NEW
&lv_5=13
&inote_5=(171)
{4},,,,,,,,
{4}1<7[4:1],,6qq7[4:2],,3h[4:2],,7h[4:1],5h[4:1],
{4}1<7[4:1],,2pp1[4:2],,5h[4:2],,3h[4:1],7h[4:1],
{4}1<7[4:1],,6qq7[4:2],,3pp2[4:2],,7,8,
1<7[4:1],,3qq4[4:2],,7,6,5w1[8:14],,,,,,
{4},,,1bw5[8:1],
{8}1,,6<1[8:1],,5,,2>5[8:1],,1,,8h[4:1],,{8}1,2,37,6,5-3[8:1],,
{4}
{4}2-6[8:1],5-3[8:1],7-1[8:1],,{8}2,2h[8:1],8-5[8:1],8,1-4[8:1],1,
{4}6h[4:1],4-1[8:1],6-1[8:1],4qq5[8:2],6,6h[8:2],{8}5h[8:1],7h[8:1],3h[8:1],4h[8:1],
{4}3-1[8:1],5-7[8:1],{8}4,4h[4:1],,1,,82,7h[4:1]/3,,,{16}6,4,5,,3,4,
{4}2<7[8:1],7,6q3[8:1],1,4q5[4:1]/2h[4:1],,{8}1,2,35,6,7-1[8:1],,
{4}2-6[8:1],7-1[8:1],5>2[8:1],6,{8}7,7h[8:1],{8}1-4[8:1],1,8-5[8:1],8,
{4}3h[4:1],5-8[8:1],3-8[8:1],5pp4[8:2],3,3h[8:2],{8}4h[8:1],2h[8:1],6h[8:1],5h[8:1],
{4}8-6[8:1],2-4[8:1],{8}5,5h[4:1],,8,,21,3/8h[8:1],{16}3,4,2,,{16}5,4,6,,
||{4}2b,6>3[8:1],2h[4:1],1-4[8:1],8,5/7h[4:1],{8}6qq7[8:3],4,2,8,
||{4}1-3[8:1],8/1<6[8:1],4-8[8:1],5pp1[8:3],2,3h[4:1],{8}2-6[8:1],2,4>1[8:1],4,
||{4}7v2[8:1],7/8<2[4:1],8,1-5[8:1]*pp8[8:3],,6h[8:3],{8}7v5[8:1],5<8[8:1],3,1,
||{4}2>4[8:1],1V38[4:1],{8}51,5-1[8:1],,5,,34,2<7[8:1]/5,,2,{16}6,6,5,,34,,
{8}12,{4}3pp1[8:3],5,8qq1[8:3],5,2pp2[4:1],2<8[8:1],{8}7,6-4[8:1],,3,
{4}2-4[8:1],1-5[8:1],1-3[8:1],8-4[8:1],8-2[8:1],7qq8[8:3],{8}3,3,4,4,
{4}5-2[8:1],7<4[8:1],8-3[8:1],6<1[8:1],5-2[8:1],8<5[8:1],{8}2,1>4[8:1],,8,
{4}7-5[8:1],4,1-3[8:1],4,7-5[8:1],4pp8[8:3],{8}1,2,3,
{8}4h[4:1],,,5h[8:1]/6pp5[4:1],,1,1,,
{8}3h[4:1],,,4h[8:1]/2qq3[4:1],,7,7,,
{8}5h[4:1],,,6h[8:1]/4h[8:1],,12,8/3<6[8:1],,7h[4:1],,8,7,2h[4:1]/6,,1,2,
{8}3/8h[4:1],,,4h[8:1]/3h[8:1],,2-5[8:1],5-1[8:1],,
{8}7h[4:1],,,8h[8:1]/6h[8:1],,7V51[4:1],5,,
{8}3h[4:1],,,4h[8:1]/2h[8:1],,78,6/1>4[8:1],,1<6[8:1],,1>3[8:1],3qq4[4:1],5h[4:0],,6,7,8,
{8}1/3h[8:3],,,4,4,,25,3h[4:1],,4h[4:1],,5h[8:1],6,,1-7[8:1]/2,,
{8}6h[8:3],,,5,5,,74,6h[4:1],,5h[4:1],,4h[8:1],3,,1/5-7[8:1],,
{8}4h[8:3],,,8,8,,57,4h[4:1],,3h[4:1],,2h[8:1],1,,4-1[8:1]/8,,
{8}7h[8:3],,,2,2,,35,6h[4:1],,7h[4:1],,8,2h[8:1],5,6h[8:1],4,
{8}3h[8:3]/5,,,4,4-6[8:1],,2h[1:0],3qq4[8:3],,7,,8,8-6[8:1],,5h[1:0],,
{8}4h[8:3],,,5,5-2[8:1],,6h[1:0],7p5[8:3],,3,,2,2h[8:1],4,6h[8:1],5,
{8}4b/7>1[8:1],,7<4[8:1],,4,3h[1:0],,5b,2<8[8:1],,2>5[8:1],,6,7h[1:0],,
{8}5b/8<5[8:1],,5,4,3,2,18,27,3pp7[4:2]/6qq2[4:2],,,,,,,4w8[8:1],,
{8}
||{1},,,,,,,,,,,,,,,,
{4}4b,1>4[8:1],1<6[8:1],1pp5[8:3],,7h[4:1],{8}3-1[8:1],4,6V82[8:1]/3,5,
{4}6,3-5[8:1],3/6-3[8:1],6/2qq3[8:3],2,{8}5,5,6h[8:1],4h[8:1],2h[8:1],8h[8:1],
{4}6b,4>8[4:1],8<4[8:2],4pp1[8:3],,8h[4:1],{8}2-4[8:1],1,2/7-5[8:1],8,
{8}71,,4-6[8:1]/2h[4:1],,4v3[8:1],3-1[8:1],,7h[4:1],,8h[8:1],6h[8:1],1,45,{16}3,4,2,,6,5,
{4}8b-3[8:1],7/8-5[8:1],8/1>4[8:1],3/1<6[8:1],21,3-1[8:1],{8}4-8[8:1]/3,5,64,7,
{4}6-3[8:1],6/2-5[8:1],2/8-4[8:1],8pp8[4:1]*qq8[4:1],8,,{8}7h[8:1],5h[8:1],3h[8:1],1h[8:1],
{4}7b,4qq5[4:1],5,6pp5[4:1],5>7[4:1],,{8}5-1[8:1],4,5/3-7[8:1],2,
{4}3/8h[4:1],{8}6,4,53,2,65,7h[4:1],,8h[8:1],6h[8:1],{16}3,4,2,,7,1,8,,21,,
||{4}3>1[8:1],4V25[4:1],{8}84,8-4[8:1],,78,,21,3h[8:1]/8,{16}4,3,7h[8:1],,5,8,4,,12,,
||{4}3qq3[4:1],3<6[8:1],7>2[8:1],2qq5[8:3],4,3-1[8:1],{8}4-8[8:1]/3,5,64,7,
||{4}7-1[8:1],5-7[8:1],3-5[8:1],3V17[4:1]*V15[4:1],,,{8}6h[8:1],4h[8:1],8h[8:1],2h[8:1],
||{8}4<7[8:1],,4pp4[4:1],,4>1[8:1],,8qq2[8:3],,,,2,,3-8[8:1],4-7[8:1],3,4,
||{8}1,42,7,65,3,21,45,8-4[8:1]/7,,2,2h[8:1],{16}5,3,7h[8:1],,4,6,2,,18,,
||{8},,{8}84,8-4[8:1],,8,,21,3v6[8:1]/8,,7h[8:1],{16}5,8,4,,2,1,,
||{8}2>5[8:1],,6<1[8:1],,3-7[8:1],,5-8[8:1],,4h[4:1],,1<6[8:1],,1>3[8:1],3qq4[4:1],1,,
||{4}5-7[8:1],5V31[4:1],5/6<3[4:1],3pp8[4:2],4-8[8:1],,{8}7h[8:1],1h[8:1],5h[8:1],3h[8:1],,
{4}3pp3[4:1],3>8[8:1],6qq6[4:1],6<1[8:1],3p7[8:1]*>8[8:1],,{8},5h[8:1]/6h[8:1],,42,
{4}5-7[8:1],5V31[8:1],6-8[8:1],6V42[8:1],7-1[8:1]*-3[8:1],,{8}25,36,74,58,
{4}1qq7[8:1],3>8[8:1],4pp6[8:1],2>5[8:1],1qq7[8:1],4>1[8:1],{8}6,5<8[8:1],,4,
{4}2pp4[8:1],5,8qq6[8:1],5,2<8[8:1]*>5[8:1],2,{8}7b/6b,7bpp4[4:2]/6bpp4[4:2],7b/6b,7b/6b,
