&title=ちゅ、多様性
&artist=ano
&first=0.298
&des=Kurage
&lv_5=13+
&inote_5=(153)
{8}3,4,5,6h[8:2],,2h[8:2],,4<8[8:2],,3,3h[8:1],,4h[8:1],,5h[8:1],,
{8}7,{16}7,5,6,5,6,4,5,3,4,,4,,4,,{8}3-5[32:3]/5,,7-3[8:1],,4-1[8:1],4,5,,
1/6<1[8:1],,4,,8/3>8[8:1],,5,,5/6-2[8:1],,1,,4/3-7[8:1],,8,,
17,1h[8:1],5,5h[8:1],3,3,24,1b/5b,,46,46,37,37,{16}1,5,1,,28,,
{4}4qq4[4:1],4pp4[4:1],,{8},6,
,3,3,4,2,7,1,{16}6,6,
{4}4-8[8:1],4-2[8:1]/8-6[8:1],,{8},15,
,7,7,8,6,2,{16}5,4,5,,
{4}3>8[8:1]/7<4[8:1],3q1[32:7]/7q5[32:7],,{8},26,
,3,3,4,2,7,1,{16}6,6,
{8}5p4[8:3]*<4[8:3],,,,,,5,5b/3b<5[32:3],
,6,6,57,4,8,17,26,
4v2[48:7],,5pp1[8:3],,3h[8:3],,,,
,8,2-4[32:3]/8,3,5-8[8:1],6,3,3,
2<7[8:1],,6q3[16:3],,4h[8:3],,,5,
,2,2/6-4[32:3],7,3-8[8:1],2,5,5,
1>4[8:1]/5<8[8:1],,1v7[16:3]/5v3[16:3],,,,,26,
,8,4-1[8:1]/8,3,7-3[8:1],6,1>7[8:3],1,
5<3[8:3],,1>5[8:2],,5,,6,6b>4[32:3]/4b,
,3,3,24,5,1,28,37,
{16}
{4}6-3[8:1],4-1[8:1],2-7[8:1],8qq1[8:3],5,{8}3,3h[8:2],,2,2,,
{4}2-7[8:1],8-5[8:1],6-3[8:1],4qq5[8:3],1,{8}7,7h[8:2],,6,6,,
{4}7-4[8:1],5-8[8:1],2-6[8:1],{8}7,7>5[48:13],,5,,,8q4[8:1]*p4[8:1],,,,
{4}3q4[32:11]/5<3[32:11],,,{8}5,5/3<5[32:3],,6,6,57,4,8,17,26,
{8}3h[8:1],4,3h[8:1],2,{16}3,4,,6,5,,45,,
{8}3V51[32:7],6-8[32:3],,,,{16}1,8,1,,2h[16:1]/7h[16:1],,
{8}6h[8:1],5,6h[8:1],7,{16}6,5,,3,4,,54,,
{8}6V48[32:7],3-1[32:3],,,,{16}8,1,8,,18,,
{8}2h[8:1],4,6h[8:1],5,{16}3,4,,7,5,,4>1[8:1]/5<8[8:1],,
{8},45,,27,2pp4[48:7]/7qq5[48:7],,,,
{8}3b/6b,2h[8:1],{16}4,3,,7,5,,4,6,2,,18,,
{8}2b/7b,34,45,56,18,{16}3,4,2,6,5,7,
{8}
2-5[8:1]*-6[8:1],5-2[8:1],2b,,8-4[8:1]*-3[8:1],4-8[8:1],8b,,
2>5[8:1],5p1[8:1]*pp4[48:13],1-4[48:7],,,,36,,
7-4[8:1]*-3[8:1],4-7[8:1],7b,,1-5[8:1]*-4[8:1],5pp4[48:13],1b,,
3>8[8:1],2,3-7[8:1],,2V41[32:7],1,28,7,
6-1[8:1],7-4[8:1],6,,2-5[8:1],3-8[8:1],2,,
7-2[8:1],2-6[8:1],6-3[8:1],3>6[48:11]*>6[48:11],,,,,
4qq5[48:13]/5pp4[48:13],,4b/5b,,,36,3b/6b,{16},2,
{8}4-1[8:1],35,{16}4,6>3[48:5],,,{24}2-6[8:1]*-6[8:1],1,8,{8}7,,,
{16}4b-8[48:5]/5,,2-5[8:1],4,1,,2,,6-3[48:5],,7>2[8:1],6,8,,7,,
{8}4bqq5[4:1],6,5<3[32:7]*q3[32:7],7,,,,45,
{16}5b-1[48:5]/4,,7-4[8:1],5,8,,7,,3-6[48:5],,2<4[48:11],3,1,,2b,,
{8},8,37,{16}4,5,2-5[8:1]/6-1[8:1],,37,,2b/6b,,,,
{8}4bpp4[4:1]*qq4[4:1],,4-8[8:1],,,,,{16}4,4,
{8}5bpp1[8:3],,4v2[8:1],,,,,7,
7b-1[48:5]/3b-8[48:5],,3-5[48:5]/7-4[48:5],,3>6[8:2],,6,5bs1[8:6],
,4b,6b,8b,2b,4b,6b,8b,
