&title=Kung-fu Empire
&artist=飛燕流舞
&first=0
&des=阿抹AIMO
&wholebpm=177
&first_4=
&first_5=0
&lv_5=13
&inote_4=
&inote_5=(177)
{4},,,,
{16}6,5,4,3,{8}7b,7<1[8:3],1,7,,8h[4:1],
{8},,6h[8:2],5-1[8:1],5,,,6,
{8}8,5,86,1>7[8:4]/5,,,8h[8:5],,
{8},,,1h[4:1],,,7h[8:1],,
{8}2h[4:1],,{8}8,8,5>8[8:4],8,,7,
{8},,6<2[8:3],5,4,,{8},3,
{8}1,4,13,8<3[16:5]/4h[8:5],,,,,
{16}2,1,8,7,6,5,4,3,2,1,8,7,
{8}63,2/5>6[8:6],1,8h[8:6],
{2},{8},,2>8[8:5],5h[8:6],
{2},{8},,6<3[8:4],8h[8:7],
{8},,,,,,,,
{16}6,,6,1,5,,{8}25,36,7/4<3[8:6],8,1h[8:6],
{2},{8},,7<1[8:5],4h[8:6],
{2},{8},,3>6[8:4],1h[8:7],
{2},{4},
{16}5,4,3,2,1,8,7,6,1,8,7,6,
{8}4,2,8,6,46,2,8,{16}4,5,4,5,{8}4,7,1,
{8}26,3,5,{16}7,8,7,8,6,1,5,2,
{8}8,17,3,5,{16}1,8,1,8,{8}1,6,4,
{8}73,8,2,{16}6,5,6,5,7,4,8,3,
{8}1,82,1,78,{16}6,5,6,5,{8}6h[8:1],4,3,
{8}57,6,4/5h[8:1],{16}1,2,6,5,3,4,8,7,
{8}1,17,8,12,{16}3,4,3,4,{8}3h[8:1],
{16}2,1,8,7,3,2,1,8,6,5,4,3,8,1,2,3,1,8,7,6,
{8}5,6,17,5,6,1/7h[8:2],,1,62,2,2-7[8:1],2,2/6-2[8:1],,6,,
{8}4,5,72,4,5,7/2h[8:2],,8,37,8,8-4[8:1],8,8/3-8[8:1],,3,,
{8}7,5,82,5,7,2/8h[8:2],,2,37,3,3-6[8:1],3,3/7-3[8:1],,7,,
{8}2,4,16,4,2,1/6h[8:2],,1,62,1,1-5[8:1],1,1/6-1[8:1],,
{16}62,3,4,5,6h[8:1],,7,6,8h[8:1],,1,8,2h[8:1],,4,2,6h[8:1],,
1,7,1,8,1,8,1,2,3,4,1/5h[8:2],,{8},8,3,2-5[8:1]/7,1,2/7-4[8:1],8,7/2-8[8:1],1,27,
7,1,{16}1,8,7h[8:2],,{8}1,2h[8:2],{16}8,7,6h[8:1],,3,4,
{8}6/5h[8:7],7,1,6,7,1,,1,8/5h[8:3],8,8-4[8:1],8,8-5[8:1]/5-1[8:1],,58,,
{8}3/4h[8:7],2,8,3,2,8,,8,2/4h[8:3],1,1-6[8:1],1,1-4[8:1]/4-7[8:1],,41,,
{16}8h[8:1],,6,8,5h[8:1],,7,5,6h[8:1],,4,6,2h[8:1],,8,2,8,1,8,1,8,7,6,5,8/4h[8:2],,
{8},1,6,7<5[8:1]/1,
{16}1,2,7>1[8:1]/3,,4,3,2/7<5[8:1],,2,3,74,,2,1,7,8,1,2,3,4,5,6,
{8}71,28,35,46,3/7h[8:7],2,8,3,2,8,,8,1/7h[8:3],1,1-6[8:1],1,1-5[8:1]/7-3[8:1],,17,,
{8}6/2h[8:7],7,1,6,7,1,,1,7/2h[8:3],8,8-3[8:1],8,8v5[8:1]/2v5[8:1],,82,,
{8}3h[8:2],{16}8,7,6,,1,2,8,7,1h[8:2],,,,8,7,6,,1,2,8,7,{8}1h[8:2],,8,1,2,
{8}3h[8:2],{16}8,7,6,,1,2,8,7,1h[8:1],,{8}6h[8:2],1,8>2[8:1],7,6>4[8:1],7,3>8[8:1],2,3,,
{8}7h[8:2],{16}2,3,4,,6,5,3,4,6h[8:2],,,,2,3,4,,6,5,3,4,{8}6h[8:2],,4,5,6,
{8}7h[8:2],{16}2,3,4,,6,5,3,4,6h[8:2],,,,2,3,4,,6,5,3,4,{8}6h[8:1],4h[8:1],2h[8:1],8h[8:1],6h[8:1],
4h[8:5],{16}7,8,1,,,,7,6,5h[8:5],,,,2,1,8,,,,2,3,{8}4h[8:3],,7,7,,7/5h[8:2],,6h[8:10],8b,,,,,1,,2,,3,,4,,
5h[8:5],{16}2,1,8,,,,2,3,4h[8:5],,,,7,8,1,,,,7,6,{8}5h[8:3],,2,2,,2/4h[8:2],,3h[8:10],1b,,,,,8,,7,,6,6,5,{16}5,5,4>6[8:11],,
{1},
{8},,,
{4}5>2[8:1],,
{8}1b/8b,1,28,7,38,3,48,6h[8:1],5h[8:2],{16}8,7,6,,2,3,{8}4/6-3[8:1],2,6/2V85[8:5]*V41[8:5],8,{1}2b,
{8}7h[8:1],8h[8:1],1h[8:1],2h[8:2],{16}1,8,7,6,15,8,7,6,
{8}58,3,74,4,46,2,53,3h[8:1],4h[8:2],{16}1,2,3,,7,6,{8}3b/5b,1b/7b,6bV84[8:2]/4bV26[8:2],8b/2b,
{1}6b<5[8:4]/4b>5[8:4],
{8}5h[8:1],4h[8:1],3h[8:1],2h[8:1],{16}3,4,5,6,72,3,4,5,
{8}6b/7b,5,45,3,23,1,18,7,4h[8:1],{16}3,4,5h[8:1],,2,3,{8}4/5-8[8:1],7,1V74[8:5]*V38[8:5]/5,3,
{2}1b,
{8},,,1,26,2,2-6[8:1]/6,2,2-7[8:1]/6-3[8:1],,26,,
{8}32,5,54,7,76,8,81,3,5h[8:1],{16}6,5,4h[8:1],,7,6,{8}4b/5b,2b/7b,3bV16[8:2]/6bV83[8:2],1b/8b,
{2}3b>5[8:4]/6b<4[8:4],
{8},,,8,73,8,8-5[8:1]/4,8,8-4[8:1]/4-1[8:1],,84,,
{8}4/6h[8:1],3,61,4/6h[8:1],3,1/6,,1,2/6h[8:1],2,2-6[8:1]/6-2[8:1],26,2-7[8:1]/6-3[8:1],,26,,
{8}5/3h[8:1],6,38,5/3h[8:1],6,8/3,,8,7/3h[8:1],8,8-4[8:1]/4-8[8:1],84,8-5[8:1]/4-1[8:1],,48,,
{8}6/2h[8:1],7,21,6/2h[8:1],7,1/2h[8:2],,1,8/2h[8:1],8,2-7[8:1]/8-3[8:1],82,8v6[8:1]/2v4[8:1],,82,,
{8}3/7h[8:1],2,78,3/7h[8:1],2,8/7h[8:2],,8,2/7h[8:1],1,7-2[8:1]/1-6[8:1],1/7,1bv4[8:1]/7bv4[8:1],,1bV38[2:9]/7bV58[2:9],,
{1}1b/7b,
{1},
{1},
{1},
{1},
{2},E
