&title=Odysseus
&artist=XeoN
&first=0
&des=jianouo
&lv_5=14
&inote_5=(187){1},,,,,,,,
{8},,,,,,,
{32},,,
{8}5,,4,,3q5[8:12],,,,,,6,,8,,,7,,,6,,6pp3[8:11],,,,,,,,3,,,2,,,1,,2qq6[8:10],,,,,,6,,7,,,8,,,7,,7pp2<7[8:9],,,6,,,5,,4,,,,
{16}5x-3v2[32:7],,,6,,,7,,7b,,,,
{8}53,,4,4,5<8[8:1]/3,,5,,3,2>5[8:1],,5,6V84[16:4],,6,,3,,5,5,6/4>1[8:1],,4,,6,7-4[8:1],,4,3V51[4:1],,3,,8,,1,1,28,,8,8,17,8,2-5[8:1],
{16},1,2,,8,,7,,7-3[8:1],,
{8},5,5v2[8:1],,6,,7v6-4[32:7],,1h[4:1],,,3,3,8,8h[1:1],,E5,,E4,,E3,,2h[1:1],,E6,,E7,,E8,,8,,7/E4,,6/E3,,5/E2,,4/E8,,3/E7,,2/E6,,1/E5,1,24,3,3,24,3,3,24,5,64,5,5,64,5,5,64,3,
{16}6,5,6,5,7,4,7,4,8,3,8,3,1qq5[2:1],2,1,2h[16:13],1,,,,,,,,,,,,6,,,,
{8}6pp4[8:6],,3,,,,3,,,,3,
{16},4,
{8}2,2,2>5[8:1],,6,,7,7pp4[8:6],E4,,2,,E3,,3,,E2,,5,
{16}5,4,6p4[8:6],,
{8},3,,,3,2,,2,,3,
{16},4,5,,5,,46,,,,4,,,,35,,,,4,,2h[4:1]/5,,,,6,5,7h[4:1],,,,6,,5,,3,4,3,,6,5,7,,
{8}3qq5[8:6],,6,,,,6,,,,6,
{16},5,
{8}7,7,7<4[8:1],,3,,2,2qq5[8:6],E6,,7,,E7,,6,,E8,,4,
{16}4,5,3>8[8:1],,,,3,,7p4[16:7],,,,7,,1,,,,3,,,,25,,,,4,,4,,3<6[8:1]/5,,2,,3/7h[4:1],,,,1h[4:1],,,,8,,7h[4:1],,,,3,3,4h[4:1],,,,2,2,5h[4:1],,,,3,3,
{32}D6,A6,D7,A7,D8,A8,D1,A1,
{8}D2/4-2[8:1],,4,6-3[8:1],,6,2v5[8:1],,26,,7,8<5[8:1],,8,
{16}4,3,2,1,
{8}6-8[8:1],,6,2-7[8:1],,2,5v2[8:1]*<8[8:1],,5,,
{16}1,2,3,4,7,6,5,4,8,1,2,3,
{8}5-7[8:1],,5,3-6[8:1],,3,7v4[8:1],,37,,
{16}8,1,2,3,5,6,7,8,2,3,4,5,
{8}7-1[8:1],,7,3-8[8:1],,3,6v1[8:1],
{16}2x<5[16:4],3,4h[4:1],,,,,,4x,3x,2x,1x,4x,3,2,1,8,7,6b/2b,,
{8},3-5[8:1],,63,,7,7,8-4[8:1],,83,2>5[8:1],,27,6pp4[16:7],,6,,3>8[8:1],,3,,
{16}5,6,7,8,
{16}2,4,
{16}3,4,2,5,2,5,1,8,7,6,1,8,7,6,
{8}3-5[8:1]/5,,36,7-3[8:1],,74,5-2[8:1]*<8[8:1],,5,,1x-5[8:1],,81,
{16},7v4[16:2],,,3,,2,,,,8>3[8:1],,,,68,,7h[4:1],,,,3pp8[16:9],2,1,,,7,,,7,,7h[8:4],,,,,,,,Cf,,
{8},,,,,,,,,1,,8,,7q1[8:10],,7,,,2,,,4h[4:2],,,,,,,,3,,2pp7[8:8],,,,,,7,,6,,,6,,,5,,6qq2[8:6],,,2,,,3,,3pp6>3b[8:6],,,,7>2[16:2],,,,E1,,E8,,E7,,E6/2,,3/E5,,E4/6,5,7<4[8:1]/E3,,7/E2,,E1/5,,E8/3,4,E7/2>5[8:1]b,,E6/2,,E5/3x,,E4/6,,E3/5-8[8:1],,1/5,,
{8}24,3,3,24,6,6,24,36,57,6,6,57,3,3,57,16,
{16}2,8,3,7,4,6,1,7,2,6,3,5,8,6,1,5pp8<5b[8:5],2x,,,,,,,,4>1[8:1],,,,4b,,,,
{8}4bxV28[16:3],,47,6-3[8:1],,61,1-3b[8:1]*-5[8:1],,1,,6,7qq4[16:6],,74,
{16}4,3,2,1,8v3[8:1],,,,68,,5<8[8:1],,,,25,,3pp5[16:3],,,,73,,,,1,8,7,6,51,2,3,4,58,7,6,5,4V68[16:3]/2,,,,14,,3v6[8:1],,,,38,,7<4[8:1],,,,17,,,,8,1,2,3,48,7,6,5,41,2,3,4,5v2[8:1]/8,,,,57,,6>3[8:1],,,,16,,2v5[8:1],,5x,6x>1b[8:2],7xh[4:1]
,,,,,,8,7,6,5,8x/4,7,6,5,4,3,2b/6b,,,,3q4[8:3]/5,,,,6,,6,,8<5[8:1],,,,38,,,,3,,2v5[8:1]/5,,,,24,,6>2[4:1],,,,2<6[4:1],,,,6,,,,4,,,,4,3,2,1,7,5,6,5,7,4,7,4,8,1,2,3,84,1,2,3,4/7-3[8:1],,,,47,,5p4[8:3]b,,,,15,,8,,7,,6-2[8:1],,,,4/6,,3p2[8:3]b,,,,38,,7,,6,,5-1[8:1],,,,25,,4-8[8:1]b,,,,47,,6,,5b/1b,26,37,,,25,,,4h[16:3]/6,,
{48}A3,D3,A2,D2,A1,D1,A8,D8,A7,D7,A6,D6,
{16}Cf/A5,,,,
{16}3,4,3,4,2h[8:1],,7,8,6,5,7,4,5,2,4,3,6,5,7,3,4,3,5,2,1,3,8,1,6,8,7,8,
6,5,6,5,7h[8:1],,2,1,3,4,2,5,4,7,5,6,3,4,2,6,5,6,4,7,8,6,1,8,3,1,2,1,4,3,2,1,5,6,7,8,5,4,3,2,8,7,6,5,2,1,3,8,4,7,5,6,4,3,2,1,7,6,5,4,2,8,1,7,8,6,5,7,3,1,2,8,1,7,8,6,
{12}5b,5,5,4b,4,4,3b,3,3,2b,2,2,
{16}1x/8x,7,6,5,3,2,1,8,6,5,7,4,2,5,3,4,1,2,3,4,6,7,8,1,3,4,2,5,4,7,5,6,2,1,3,7,5,6,1,8,2,3,4,5,1,8,7,6,2,4,3,5,4,6,5,7,8,6,1,7,2,8,3,1,4w8[8:1],,,,4,,,,7,6,5,4,8,1,2,3,6,5,8,4,6h[8:1],,3,4,1,5,2,7,4,8,5,6,1<6[8:1]*>4[8:1],,,,1w5[8:1],,,,1,,,,73,,15,26,7b/3b,,,8b/1b,,,4b/2b,,6b/4b,,,6b/8b,,,7b/3b,,Cf/E1/B1/B8/E5/B4/B5,,,,
{1},{8},,,,,,3v1[1:1]b/7v5[1:1]b,,,,,,,,,,,,,,,,7-3[1:1],,,,,,,,,,,,,,,,
{384}2qq7>2[1:2],6qq3<6[1:2]b,,,,,,,
