&title=FEEL ALIVE
&artist=ELEMENTAS feat. NAGISA
&first=0.02
&des=JasonW
&wholebpm=162
&shortid=130
&genre=maimai
&cabinet=SD
&version=maimai PLUS
&chartconverter=Neskol
&lv_6=13+
&inote_6=(162){1},
{1},
{1}8<1[2:1]/7h[4:7],
{1}8<1[2:1],
{1}6h[1:1]/8<1[2:1],
{16}7-4[8:1],,,,,,,,8/5-8[8:1],,,,3,,,,
{8}3-5[8:1],,6h[4:1],,5,,7/8,7/8,
{8}6-4[8:1],,3h[4:1],,4,,2/1,2/1,
{8}3-6[8:1],,7h[4:1],,6,,7/1,7/1,
{16}6,5,6,,3,4,3,,2/5,,,,7,8,7,,
{8}6-4[8:1],6,3,3,4,4,1/2,1/2,
{8}3-5[8:1],3,6,6,5,5,8/7,8/7,
{8}6-4[8:1],6,2,2,4,4,1/8,1/8,
{16}6,5,6,,7/4,,8,,3,4,3,,2/5,,1,,
{16}7/5,,,4/5,,,2h[4:1]/4,,,,1,,3/8,,7/4,,
{16}6z2[8:1]/5h[4:1],,,,,,,,1b<6[8:1]/5b>2[8:1],,,,,,,,
{16}1/6h[8:1],,5,6,,4,3<6[8:1],,2,,,,1,2,3,4,
{16}8/5h[8:1],,6,5,,1,2<7[8:1],,3,,,,4,3,2,1,
{16}8/6h[4:1],,5,,4,,5/3,5/3h[4:1],,2,,2,,1,8,7,
{16}3,2,1,8,4,3,2,1,4,5,6,7,4,5,6,7,
{16}8-3[8:1]/3-1[8:1],,3-5[8:1],,,,,,1h[8:1],,6,5,4,3,2,1,
{16}6-1[8:1]/8-6[8:1],,6-4[8:1],,,,,,2h[8:1],,3,4,5,6,7,8,
{16}3h[4:1]/1,,4,,5,,6/4,6h[4:1]/4,,7,,7,,8,1,2,
{16}6,7,8,1,5,4,3,2,1/8b,1b,2b,3b,4b,5b,6b,7b,
{8}3h[4:1],1,4h[4:1],1,5qq8[8:3],8,6h[4:1],,
{8},,1,2,3-6[8:1]/7-2[8:1],,,,
{8}1/5,8<5[8:1]/4>1[8:1],,4/8,,8/4-1[8:1],,3h[4:1]/4,
{8},1,8/3,7/4,6-4[8:1]/5-2[8:1],,5/6,,
{8}6h[4:1],8,5h[4:1],8,4pp1[8:3],1,3h[4:1],,
{8},,1,8,7-4[8:1]/3-8[8:1],,,,
{8}1/5,2-5[8:1]/6-1[8:1],,2<3[4:1]/6,,8,,,
{8}2b/7b,1b-5[8:1]/8b-4[8:1],,1b/8b,,3b/6b,1b/8b,,
{16}3h[8:1]/4,,1,,3/4h[8:1],,1,,6/5h[8:1],,8,,6h[8:1]/5,,8z4[4:1],,
{16},,4z8[4:1],,,,8,,,,4<7[8:1],,,,,,
{16}1,,2,,8/3,,4,,5,,6pp1[8:3]/2pp5[8:3],,,,2/6,,
{8},,,8/4,,1/3,2/8,1/7,
{16}6h[8:1]/5,,8,,6/5h[8:1],,8,,3/4h[8:1],,1,,3h[8:1]/4,,1<6[8:1],,
{16},,4>1[8:1]/1,,,,7<4[8:1]/4,,,,1pp5[8:3]*qq5[8:3],,,,1,,
{16},,,,,,,,4/6,,1-4[8:1]*-6[8:1]/8,,,,1b,,
{8},7/3,8/4,1v6[8:1]/5v2[8:1],,1/5,,,
{8}1>4[8:1]/5<8[8:1],,1/5,,8<5[8:1],5>2[8:1],8,1-6[8:1]*-7[8:1],
{16},,1-4[8:1]*-3[8:1],,,,1,,,,6/5,,8-4[8:1]/4,,,,
{16}8/3,,2,,1/6,,7,,8-5[8:1]/3,,1-4[8:1]/2,,8,,1,,
{16},,8b/4b,7/3,6/2,5/1,8/4,,,,1b/5b,2/6,3/7,8/4,1/5,,
{8}8<5[8:1]/4>1[8:1],,8/4,,1>4[8:1],4<7[8:1],1,8-3[8:1]*-2[8:1],
{16},,8-5[8:1]*-6[8:1],,,,8,,,,3/4,,1-5[8:1]/6,,,,
{8}1/6,7,3/8,2,
{16}1/4,5,6,7,8,1,
{32}2,1,8,7,6,5,4,3,2,1,8,7,6,5,4,3,2,1,8,7,6,5,4,3,2,1,8,7,
{4}6b/5b,
{16}8/3h[8:1],,4,3,,5,6>3[8:1],,7,,,,8,7,6,5,
{16}1/4h[8:1],,3,4,,8,7>2[8:1],,6,,,,5,6,7,8,
{16}1/3h[4:1],,4,,5,,4/6,4/6h[4:1],,7,,7,,8,1,2,
{16}6,7,8,1,5,6,7,8,5,4,3,2,5,4,3,2,
{16}1-6[8:1]/6-8[8:1],,6-4[8:1]/1,,,,,,8h[8:1],,3,4,5,6,7,8,
{16}3-8[8:1]/1-3[8:1],,3-5[8:1]/1,,,,,,7h[8:1],,6,5,4,3,2,1,
{16}6h[4:1]/8,,5,,4,,3/5,3h[4:1]/5,,2,,2,,1,8,7,
{16}3,2,1,8,4,5,6,7,8/1b,8b,7b,6b,5b,4b,3b,2b,
{1}1bw5[1:1]/8b,
{1},
E
