&title=Antler
&artist=Juggernaut.
&first=0
&des=【场外】MUFC2 -The Legend of 14.1-
&des_5=【场外】MUFC2 -The Legend of 14.1-
&lv_5=14
&inote_5=(90)
{1},
{16}6h[16:3],5,4,3h[16:5],
,,,,
5h[16:3],4,3,2h[16:5],
,,,,
{16}4h[16:3],3,2,1h[16:9],
,,,,
{2}3q5[4:1],
{16}1h[16:3],6,7,8h[16:5],
,,,,
2h[16:3],7,8,1h[16:5],
,,,,
{16}3h[16:3],4,5,6h[16:5],
,,{8}5-7^6-8[4:1]*-3^4-2b[4:1],
,,
,,
{8}1b/6b>3[32:3],7h[8:1],
6,{16}8,1,
{8}2/4h[8:1],{32}2,3,4,5,
{8}6>3[8:1],7h[8:1],
{4}6<2[16:3],
6p4[4:1],
6,
{8}1,8,
{8}7/1,{32}2,4,2,4,
{8}1>4[32:3],8,
{32}1/5,6,7,8,{8}1,
4/7<4[8:1],3,
{16}7/3,3,2,2,
{32}1,5,2,6,3,7,4,8,
{4}5xw1[16:1],
Cf,
{48}6/1bq5[32:3],2,3,4h[16:3],,,{8}7,
1,{16}8,8,
{48}6/1bqq7[32:3],2,3,4h[16:3],,,{8}8,
1,5,
{48}5/8bp6[16:3],4/7,3/6,2/5h[16:3],,,,,,,,,
{4}8b,
{48}5/8bxh[8:3],4,3,2,,,,,,,,,
{8}1,5,
{48}7/4b-8[32:3],3,2,1h[16:3],,,{8}6,
4,{16}2,2,
{48}7/2bqq8[32:3],3,4,5h[16:3],,,{8}1,
2,5,
{48}4/7bp2[8:1],3/6,2/5,1/4h[16:3],,,,,,,,,
{4}7b,
{48}3/5b<3[16:3],6,7,8h[16:3],{4},{16},,{24},
{48}8bp4[32:3],7,6,5h[16:3],,,{8}2,
8,{16}1,1,
{48}3/8bpp2[32:3],7,6,5h[16:3],,,{8}1,
8,4,
{48}4/1bq3[16:3],5/2,6/3,7/4h[16:3],,,,,,,,,
{4}1b,
{48}4/1bxh[8:3],5,6,7,,,,,,,,,
{8}8,4,
{16}5<2[16:3],4,7,4,
{4}5,
{48}5q7[16:3],4,3,2xh[16:1],,,{8}8,
{4},
{48}1b,2,3,4h[16:3],,,,,,,,,
8b,7,6,5h[16:3],,,,,,,,,
1bqq6[4:1],2/6,3/7,8/4h[16:3],{4},{16},,{24},
{16}5,4,3,2h[16:3],
{8}E8,E6,
{16}4,3,2,1h[16:3],
{8}E7,E5,
{16}3,2,1,8h[16:3],
{8}E6,E4,
{16}1,2,3,4h[16:3],
{8}E6,E8,
{16}7/5,7,{32}1,8,1,8,
{16}2,{32}2,4,{16}3,{32}6,5,
6,5,{16}7,1,{32}4,3,
{16}4,1,{32}6,5,{16}6,
{16}8,{32}4,4,{16}7,{32}3,3,
{16}6,{32}2,2,{16}5,{32}1,1,
4z8[16:3],5,6,7,8,1,2,3,
{4}4x,
{48}1x,2,3,5x,6,7,1x,2,3,8xh[32:1],,,
{8}8xh[8:1],{48}3x,2,1,7x,6,5,
3x,2,1,4xh[32:1],,,{8}4xh[16:1],
{16}1h[16:1],{32}3x,1,4,1,5,1,
{48}6x,7,8,2x,3,4,6x,7,8,5xh[32:1],,,
{8}5xh[8:1],{48}8x,7,6,4x,3,2,
8x,7,6,1xh[32:1],,,{8}1xh[8:1],
{16}8h[16:3],{32}6x,5,4,3,2,1,
{48}7x,6,5,3x,2,1,7x,6,5,1xh[32:1],,,
{8}1xh[8:1],{48}6x,7,8,2x,3,4,
6x,7,8,5xh[32:1],,,{8}5xh[8:1],
{16}8h[16:1],{32}6x,8,5,8,4,8,
{48}3x,2,1,7x,6,5,3x,2,1,4xh[32:1],,,
{8}4xh[8:1],{48}1x,2,3,5x,6,7,
1x,2,3,8xh[32:1],,,{8}8xh[8:1],
{16}1h[16:1],{32}8xV64V28[2:1],2,7V53V17[2:1]*V53-1[8:3],3,6V42V86b[2:1],4,
{4}5V31V75[2:1],
{16},,,,
,,,,
4xh[8:1],{32}E3,E2,E1,E8,E7,E6,
{48}3x,2,1,8h[16:1],,,{16}5h[16:1],{48}1x,2,3,
{16}4h[16:1],7h[16:1],{48}3x,2,1,8h[16:1],,,
7x,6,5,4h[16:1],,,{16}1h[16:1],{48}5x,6,7,
{16}8h[16:1],3h[16:1],{48}7x,6,5,4,,,
{48}1x,2,3,5x,6,7,1x,2,3,8xh[32:1],,,
{8}8xh[8:1],{48}3x,2,1,7x,6,5,
3x,2,1,4xh[32:1],,,{8}4xh[8:1],
{16}1h[16:1],{32}3x,1,4,1,5,1,
{48}6x,7,8,2x,3,4,6x,7,8,5xh[32:1],,,
{8}5xh[8:1],{48}8x,7,6,4x,3,2,
8x,7,6,1xh[32:1],,,{8}1xh[8:1],
{16}8h[8:1],{32}3x,4,5,6,7,8,
{1}1pp7>4b[2:3]/5pp3<8[2:3],
{1},
{48}4b/7<4[32:3],3,2,1,,,{8}5h[8:1],
7,{16}8,8,
{8}1/3h[8:1],{32}1,2,3,4,
{8}5>2[8:1],8h[8:1],
{16}5p1[32:3],8,7,6,
5pp3[4:1],8h[16:1],{32},,7/1x,6/2,
{4}5/3,
{8}1,8,
{8}7b/1b,{32}3,4,3,4,
{8}2>5[16:1],{16}1,1,
{32}2/6,7,8,1,2,3,4,5,
{8}6/8>3[8:1],1,
{16}8/4,4,5,5,
{32}4,8,3,7,2,6,1,5,
{64}8bw4b[16:1]*w4[16:1],,,,,,,,A2,B2,C,B6,A6,,,,
{4}8x,
{2}Cfh[#4.0001],
B2fh[2:1]/E3fh[2:1]/B3fh[2:1]/E7fh[4:3]/B7fh[4:3]/B6fh[4:3],
{8},,
,,
,,
5/6h[8:1],4,
{48}6/4bV28[12:1],3V17b[12:1],2V86[12:1]*V86[12:1],1h[16:3],,,{8}5,
4x,{16}5,5,
{48}4bV28[12:1],3V17b[12:1],2V86[12:1]*V86[12:1],1h[16:3],,,{8}5,
4x,5,
{48}4b/5xh[8:1],3,2,1,,,,,,,,,
5/2b,6/3,7/4,8/5h[16:3],,,,,,,,,
1bqq4[16:3],2,3,4,5,6,7,8,1,2,3,4,
{4}5/1b,
{48}8bV64[12:1],7V53b[12:1],6V42[12:1]*V42[12:1],5h[16:3],,,{8}1,
8x,{16}1,1,
{48}8bV64[12:1],7V53b[12:1],6V42[12:1]*V42[12:1],5h[16:3],,,{8}1,
8x,1h[8:1],
{48}3b,4,5,6h[16:3],,,,,,,,,
2b,3,4,5h[16:3],,,,,,,,,
1bs5b[8:1],2,3,4,5,6,7,8,1,2,3,4,
{4}1b/5x,
{16}6>7b[16:3],5,7,5,
{4}6,
{48}5qq7b[16:3],4,3,2h[16:1],,,{8}6,
{4},
{48}1b,2,3,4h[16:3],,,,,,,,,
8b,7,6,5h[16:3],,,,,,,,,
1bqq6b[4:1],2/6,3/7,8/4h[16:3],{4},{16},,{24},
{12}5bh[12:1],8xh[24:1],{24},8xh[24:1],
{32}4xp8b[32:3],3,7x,6,4x,3,7x,6,
{12}4b,5xh[24:1],{24},5xh[24:1],
{32}1x,2,6x,7,1x,2,6x,7,
{48}2b,3,4,5h[16:1],,,{16}8h[32:1],8h[32:1],
{48}7b,6,5,4h[16:1],,,{16}1h[32:1],1h[32:1],
{48}2b,3,4,5h[16:1],,,{16}7h[32:1],7h[32:1],
{32}8b,1,2,3,4,5,6,7,
{4}5h[8:1]/8qq3[4:1]*qq3[4:1],
{16}3,3,2,2,
{8}1>6[8:1],8,
7/1q7b[8:1],8,
{4}1b/5h[8:1],
{32}4x,3,8x,7,4x,3,8x,7,
3xV15b[32:5],2,7x,6,3x,2,7x,6,
{16}3,4bh[8:1],{8},
{48}7b,8,1,2,{12}5xh[24:1],{24},5xh[24:1],
{32}3x,4,6x,7,3x,4,6x,7,
{48}2b,3,4,5,{12}8xh[24:1],{24},8xh[24:1],
{32}4x,3,7x,6,4x,3,7x,6,
{48}3b,2,1,8h[16:1],,,{16}5h[32:1],5h[32:1],
{48}6b,7,8,1h[16:1],,,{16}4h[32:1],4h[32:1],
{48}3b,2,1,8h[16:1],,,{16}6h[32:1],6h[32:1],
{32}1b,2,3,4,5,6,7,8,
{4}5h[8:1]/1pp4[4:1]*pp4[4:1],
{16}4,5,6,7,
{8}8v2[8:1],7,
8/6,5,
{32}6b/2,7/3,8/4,1/5,6,7,8,1,
2/6bV82-4[16:3],3/7V13b[8:1],4/8V24-6[16:3],5/1V35[8:1]*V35-7[16:3],6,7,8,1h[32:1],
{4}6b,
Cfh[16:1],
{48}8x-4[16:1],7,6,4xh,3,2,5xh,6,7,1xh[32:1],,,
{8}8x,{48}5x-1[16:1],6,7,1xh,2,3,
8xh,7,6,4xh[32:1],,,{8}5x,
{32}2x,1x,8,7,2,1,8,7,
{48}1x-5[16:1],2,3,5xh,6,7,4xh,3,2,8xh[32:1],,,
{8}1x,{48}4x-8[16:1],3,2,8xh,7,6,
1xh,2,3,5xh[32:1],,,{8}4x,
{32}7x,8x,1,2,3,4,5,6,
{48}1x-5[16:1],2,3,5xh,6,7,4xh,3,2,8xh[32:1],,,
{8}1x,{48}4x-8[16:1],3,2,8xh,7,6,
1xh,2,3,5xh[32:1],,,{8}4x,
{32}7x,8x,1,2,7,8,1,2,
{48}8x-4[16:1],7,6,4xh,3,2,5xh,6,7,1xh[32:1],,,
{8}8x,{48}5x-1[16:1],6,7,1xh,2,3,
8xh,7,6,4xh[32:1],,,{8}5x,
{32}2x,1x,8,7,6,5,4,3,
{16}E8h[8:1]/B7h[8:1]/B8h[8:1],,,B2h[8:1]/E3h[8:1]/B3h[8:1],
,,B4/E5,B6/E6,
{8}B1h[8:1]/E2h[8:1]/B2h[8:1],B6h[8:1]/E7h[8:1]/B7h[8:1],
{16}4xh[8:1],{32}E2`B1,E1/B8,E8`B7,E7/B6,E6`B5,E5/B4,
{48}3x,2,1,8h[16:1],,,{16}5h[16:1],{48}1x,2,3,
{16}4h[16:1],7h[16:1],{48}3x,2,1,8h[16:1],,,
7x,6,5,4h[16:1],,,{16}1h[16:1],{48}5x,6,7,
{16}8h[16:1],3h[16:1],{48}7x,6,5,4,,,
{48}1x-5[16:1],2h,3h,5xh,6h,7h,4xh,3h,2h,8xh[32:1],,,
{8}1xh,{48}4x-8[16:1]*-8[16:1],3h,2h,8xh,7h,6h,
1xh,2h,3h,5xh[32:1],,,{8}4xh,
{32}7xh,8xh,1h,2h,7h,8h,1h,2h,
{48}8x-4[16:1],7h,6h,4xh,3h,2h,5xh,6h,7h,1xh[32:1],,,
{8}8xh,{48}5x-1b[16:1],6h,7h,1xh,2h,3h,
8xh,7h,6h,4xh[32:1],,,{8}5xh,
{32}2xh,3h,4h,5h,1xh,2h,3h,4h,
{1}5-7^6-8b[4:3]*-3^4-2[4:3],
E
