&title=ヒュブリスの頂に聳えるのは
&artist=qfeileadh feat. のあ
&first=0.27
&des=The Musical Ghost
&clock_count=4
&lv_5=14+
&inote_1=
&inote_5=(158)
{16},,,,,,,,,,,,,,
7,8,7h[8:1]/8h[8:1],,,2h[8:1]/3h[8:1],,,5h[8:1]/6h[8:1],,,7/3,,,
{24}4,8,4,8,4,8,{16}4,,1h[8:1]/3h[8:1],,,7h[8:1]/5h[8:1],,,1h[8:1]/8h[8:1],,,4/5,,,
{24}6x,5x,4x,{16}3x,1/2,,7h[8:1]/8h[8:1],,,2/6,,3,4,3h[8:1]/4h[8:1],,,6h[8:1]/7h[8:1],,,1/2,,
{32}A8,A7,A6,A5,A4,A3,A2,A1,E1,E8,E7,E6,E5,E4,E3,E2,B1,B8,B7,B6,B5,B4,B3,B2,Ch[32:9],,,,,,,,,
{32}B8/B1/E1f/A8/A1/E8/E2,{16},,,,,,,,,
7h[16:3],,,6h[16:3],,,5h[16:3],,,4h[16:3],,,3h[16:4],,,,2h[16:6],,,3,,,
3h[16:3],,,4h[16:3],,,5h[16:4],,,,6h[16:4],,,,7h[8:5],,,,,,,,,,1,8,,3,4,3,4,,
5x/3x,5,2,,7h[8:1]/4,,2,,53,5,2,,8h[8:1]/4,,2,,53,5,2,,6h[8:1]/4,,2,,53,5,2,,8h[8:1]/4,,2x,,
46,4,7,,2h[8:1]/5,,7,,46,4,7,,1h[8:1]/5,,7,,
46,4,7,2,5,3,6,3,5,4,5,4,5,3x/6x,,,
7b,8,7,8,,2b,1,2,1,,4h[8:1]/5h[8:1],,,4b/5b,,,
7xqq3<1[8:12]/2h[8:15],,,,,,,,,,,,,,,,,,,,,,,,,,,,,,,,
3p8[8:4]/4h[8:7],,,,,,,,,,,,,,,,2/5,,7x,4/7,,2x,2/5,,,,4/6,,,7/3,,,
{8}8<3[4:2]/2,,2,,2,,2,8,1>6[4:2]/7,,7,,7,,7,1,
{16}7h[8:1]/8h[8:1],,,1h[8:1]/2h[8:1],,,5h[8:1]/4h[8:1],,,,5-1[8:1]/4-8[8:1],,3/6,,54,,,,
2<5[8:3]/7>4[8:3],,2/7,,,,,,,,,,,,
4x/5x,,4,,4,5,4,,45,,4,5,4,6,4,,45,,4,,4,6,4,,45,,4,5,4,6,4,,
4/5,,4,5,4,,4,,45,,4,5,4,6,4,,7/4,,2x,5/2,,7x,7/4,,,,5/3,,,2/6,,,
1h[32:5]/7h[32:5],,,{32}26,53,
{8}4h[4:6],5,6,7,8,1,2,3,2,1-5[8:1],8,1,,,A7/B7/Cf/B3/A3/A5/B5/A1/B1,,,,,
{16}4,4,5,,,,
{12}7,5,6,2,4,3,8,6,7,1,3,2,
{8}7xq5[4:1],,5p8[4:1],8,8-3[4:1],,1,,
2p4[4:1],,4q1[4:1],1,1-6[4:1],,8,,
7p2[4:1],,2-5[4:1],5,5p8[4:1],,8-3[4:1],,3p6[4:1],,6,6,,
{16}1,1,2,2,3,3,
{8}4xq8[4:1],,8q4[4:1],8,4<8[4:1],,8>4[4:1],,4>5[4:2],,5,5,4,,,
{16}3,4,2h[8:1]/5h[8:1],,,5h[8:1]/6h[8:1],,,7/4,,,,18,,
{64}1bxpp1p4[4:3]/8bxqq8q5b[4:3],E1,B8/B1,B7/B2,E7/Cf/E3,A6/A3/E6/E4/B5/B4/D6/D4,,,
{4},,,,{16},,
{24}3x/4x,2,1,8,7,6,52,1,8,7,6,5,43,2,1,8,7,6,5b,,,
{16},,7b,8,7,8,,2b,1,2,1,,7x^2[8:1],,2x^7[8:1],,,,
Cf,,,,16,,3,4,2-5[8:1],5,3,,12,,8,,6,,5,,83,,6,5,7-4[8:1],4,6,,87,,1,,
2h[8:1],,4,3h[8:1],,5,4h[8:1],,6-1[8:1],3,5-2[8:1],4,6,,5,,
7x,6,5,4,8,7,6,5,4v7[8:1]/8v3[8:1],37,26,15,84,,,,
2,,1,,47,,2,1,3v8[8:1],8,2,,43,,5,,7,,8,,52,,7,8,6v1[8:1],1,7,,56,,4,,
4h[8:1]/3h[8:1],,,6h[8:1]/7h[8:1],,,12,,,,7-3^2[8:1]/8-4^5[8:1],,16,,78,,,,
6x,6,4,4,2,2,6,6,8,8,2,2,6b,,
7x<4q8[8:3]/8x,,6,8,7,,1,,2-6[8:1],,3,,2,,,,
2>5p1[8:3]/1,,3,1,2,,8,,7-3[8:1],,6,,7,,,,
{12}2h[12:1]/4x,,7x/5h[12:1],,1h[12:1]/3x,,8x/6h[12:1],,2h[12:1]/5x,,7h[12:1]/4x,,
{24}6b/2,5,4,3,2,1,8/3b,4,5,6,7,8,1/5b,4,3,2,1,8,7/4b,5,6,7,8,1,
{16}2/5b,,,3,4,,2,5,3>8[8:1],4,2,,5-1[8:1]/3,,6,,
7/5,,,6,5,,7,4,6<1[8:1],5,7,,4-8[8:1]/6,,3,,
24,,,1,7,2,6,3,5,2,8,3,7,4,
{4}A6/D6/A5/E6f/B6/B5/E5/D5/D7/E7,,,
{16}Ch[16:4],,,,,,
2x/E5/A4/D5,,,,,,,,,,,6x/A8/E1/D1,,,,,2x/A6/B6,,2x/A5/B5,
,,,,,,,,8x/A3/D3/E3,,,,,,,4x/A7/D7/E7,,,,,6x/A2/B2,,6x/A1/B1,,,,,
2b,4,3,5,4,6,5,7,4,5,2,6,3b,4,3,6b,5,6,2b,4,3,7b,5,6,1b,3,2,8b,6,7,
2b,4,3,1b,4,5,8b,6,5,7b,1,8,2b,5,4b,7,1b,8,2bw6[12:2],,,,,,,,,,
57,,,48,,,
3bx-6^8[12:4]/1bx-6^4[12:4],,,,,,,,,,,,
{24}4x,5,4,3,,,,,,
{12}8/4b,5/1b,6b/2,1b/5,8/4b,7b>2<7[24:8]/3,{24},,,{16},,,,,,
{1}4xw8[8:26],,,{8},,,,,{16},,
{4}4-1[8:4],6,6,6,8-5[8:4],2,2,2h[4:1],
3h[32:35],7h[32:27],,,{16},,
{32}8b/4b,1h/5,2/6h,3h/7,8h/4x,5,6,7,8,1,2,3,4x,5,6,7,8,1,2,3,4x,5,6,7,8,1,2,3,
{16}4x,,,,
5/4,,7<4[8:1],8,7>2[8:1],,7x-3-7b[4:1],,7x,,7x,,,,,,
1/8,,2-4[8:1],1,2-8[8:1],,2x-6-2b[4:1],,2x,,2x,,,,,,
{12}3h[12:1]/4x,,6x/7h[12:1],,1h[12:1]/2x,,5x/6h[12:1],,2h[12:1]/3x,,7h[12:1]/8x,,
{24}2b/6,1,8,7,6,5,4/7b,8,1,2,3,4,5/1b,8,7,6,5,4,3/8b,1,2,3,4,5,
{16}6/1b,,,7,8,,6,1,7<4[8:1],8,6,,1-5[8:1]/7,,2,,
3/1,,,2,1,,3,8,2>5[8:1],1,3,,8-4[8:1]/2,,7,,
68,,,3,5,2,6,1,7,2,8,3,7,4,6b/Cf,,,,
{8}35,36,62,27,71,18,18,1s5[8:1]/8z4b[8:1],
{16},,1bx/8bx/E1f/B8/B1,,,,
{8}7x-4[8:1]/8x,6,7/1-5[8:1],2,8<5[8:1]/1,7,8/3-6[8:1],4,3/8-4[8:1],7,
8/1>4[8:1],2,6-2[8:1]/1,7,
3-8[8:1]/6,4,3/5-1[8:1],6,4>1[8:1]/5,3,4/7-2[8:1],8,7/4,3,
{24}5x,4,5,{16}6,,73,,,,
{8}2x-5[8:1]/1x,3,2/8-4[8:1],7,1>4[8:1]/8,2,1/6-3[8:1],5,6/1-5[8:1],2,
1/8<5[8:1],7,3-7[8:1]/8,2,
6-1[8:1]/3,5,6/4-8[8:1],3,5<8[8:1]/4,6,5/2-7[8:1],1,2/5h[4:1],,
{16}8x,4,1,5,2,6,3,7,4,8-4[8:1],5,1,4,8b,,,
3x/6x^4[8:1],,3,,6-1[8:1],2,,2,6^4[8:1],,3,3,6,,2,,
2-5[8:1]/7,,7,,2^8[8:1],6,,6,2-5[8:1],,7,7,2,,6,,
7h[8:1],,5,6h[8:1],,4,5h[8:1],,3-8[8:1],6,4-7[8:1],5,3,,4,,
2x,3,4,5,1,2,3,4,5v2[8:1]/1v6[8:1],62,73,84,15,,,,
3x>8q4[8:3]/4x,,2,4,3,,5,,6-2[8:1],,7,,6,,,,
6<1p5[8:3]/5,,7,5,6,,4,,3-7[8:1],,2,,3,,,,
1x/A5/E6/D6f,,,,,,,,,,,8x/A4/E4/D4f,,,,,2x/A8f/B8,,7x/A1f/B1,,,,,,,,,4x/5x,,,,,
3,3,3b/4,,6,5/6b,,2,1/3b,,7,8b/6,,23,2b/3,,67,6/7b,,45,3b/6,,,7b/8,,8b/1,,1b/2,,
7/5b,,{24}2b/4,E2,E1,E8,{16},5/6b,,3b/4,,27,2/7b,,,3,2/4b,,6,5b/7,,81,8b/1b,,
{24}5/6,7,8,1,2,3,45,6,7,8,1,2,34,5,6,7,8,1,2h[24:4],,,,
{48}E2,B1/B2,B8/B3,C/B7/B4,B6/B5,E7/E6f/E5,6bxq4qq2^5b[8:21]/5p7pp1^6[8:21]bx,
