&title=光
&artist=THB
&first=0
&des=KuSA
&wholebpm=130
&lv_5=12
&inote_5=(130)
{1},
{24}
3,6,3,6,3,6,4,5,4,5,4,5,
{16}
3h[16:12]/6,,,,,,,,,,,,,,
{32}6h[4:4]/3,4,5h[16:15],,{16},,,,,,,,,,,,,,,,
4/7h[16:12],,,,,,,,,,,,,,
{32}3h[16:14]/7,6,5h[16:13],,{16},,,,,,,,,,,,,,
{24}3,4,5,{16}7h[16:12],,,,,,,,,,,,,,
{32}1h[16:8]/7,6,5h[16:7],,{16},,,,,,,,1/6<3[1:1],,,,,,,,
3,,,,4,,,,5,,,,6q3[8:3],,,,4,,,,,,,,4/5,,4/3,5/2,,6,6,5,
7-3[8:1],,,,4,,,,7-4[8:1],,,,1,,,,7-5[8:1],,,,3,,,,
3/4,,5/4h[16:3],,,3h[16:3],,,
2-6[8:1],,,,7,,,,2-7[8:1],,,,5,,,,2-8[8:1],,,,4,,5<7[8:1],,5>2[8:1],,
5-1[8:1],,,,,,
3<6[8:1],,,,7,,,,8<5[8:1],,,,1,,,,2<7[7:1],,,,3,,,,
5/6,,4/5h[16:3],,,6h[16:3],,,7>2[8:1],,,,4,,,,3<6[8:1],,,,7,,,,
8V61[4:1],,,,1>3[8:1],,3<7[4:1],,5-1[8:1],,,,,,,,
2,1,,1,2>5[8:1],,,,6h[16:3],,,7h[16:3],,,8,,
2,1,,1,2>5[8:1],,,,5>2[8:1],,,6,,,,,
7,8,,8,7<4[8:1],,,,3h[16:3],,,2h[16:3],,,1,,
7,8,,8,7<4[8:1],,,,4>2[8:1]*-8[8:1],,,,,,,,
6,5,,5,6h[4:1],,7,,5h[16:3],,,4h[16:3],,,3,,3,4,,4,3h[4:1],,2,,
4h[16:3],,,5h[16:3],,,6,,6,5,,5,7,,8/6,,6,5,,5,7-2[8:1],,6/8,,7b/1h[8:7],,,,,,,,,,,,,,
{24}4,5,6,{16}7b-4[8:1]/3,,3,,2/7,,1,,8-4[8:1],8,,5<3[4:1],5,,,,,,
4,,5,,6/5,,5-1[8:1],7,,7,5,,8,,2V48[4:1],,8,,2/7,,6,,5,5<8[8:1],,1>7[4:1],1,,,,,,
8,,1,,2/1,,3/4,,6,5/7,,3,3,4,
2-6[8:1],,6,,5h[4:1],,,,2-6[8:1],,6,,5h[4:1],,,,2-6[8:1],,6,,5h[4:1],,,,
3,,2h[16:3]/4,,,4h[16:3],,,1-5[8:1],,4,,6h[4:1],,,,2-5[8:1],,4,,6h[4:1],,,,
3-5[8:1],,5,,7h[4:1],,,,8,,1/2,,3,3,5,4,
6-3[8:1],,4,,2h[4:1],,,,1-6[8:1],,8,,7h[4:1],,,,5-1[8:1],,4,,3h[4:1],,,,
2,,1/4h[16:3],,,6h[16:3],,,8-3[8:1],,1,,2h[4:1],,,,3-8[8:1],,2,,1h[4:1],,,,
8v7[8:1],,1,,2h[4:1],,,,8,8,2,2,1>8[32:44],,8,,1b,,,,
7,,,,7,,,,6<5[32:44],,,,5,,,,4,,,,4,,,,3<2[32:44],,,,
6,,,,7,,,,7,,,,8>4[64:49],,,,5,,,,6,,,,6,,7,,8<1[32:44],,1,,2,,,,
2,,,,2,,,,3>4[32:44],,,,4,,,,5,,,,6,,,,6>4[64:25],,,,3,,,,2,,,,
1,,1/5,,1/5,,1/5,,1/5w1[8:1],,,,,,,,3-8[8:1]/7-4[8:1],,,,3b/7b,,,,
5<8[8:1],,,,5/1p4[8:1],,2,,1/5<8[8:1],,,,5/1p4[8:1],,2,,1/5<8[8:1],,,,1p4[8:1]/55,,2,,1/5<8[8:1],,,,5p4[4:3]/4>5[4:3],,,,5b/4b,,,,,,,,,,,,,,
3/7,,1/5-1[8:1],,2q6[8:1],,5,,2,,8-4[8:1],,5,,8,,2,,
1>4[8:1]/5,,,,1/5p8[8:1],,6,,5/1>4[8:1],,,,1/5p8[8:1],,6,,5/1>4[8:1],,,,
1/5p8[8:1],,6,,1>4[8:1]/5,,,,1p8[4:3]/8<1[4:3],,,,1b/8b,,,,,,,,,,,,,,2/6,,3,,3/4,,5,,5/6,,7/8,,2,1,,6,5,7,
4>1[8:1],,,,4/8q5[8:1],,7,,8/4q1[8:1],,,,4/8<5[8:1],,7,,8/4>1[8:1],,,,4/8q5[8:1],,7,,8/4q1[8:1],,,,5pp4[4:3]/4>5[4:3],,,,4b/5b,,,,,,,,,,,,,,2/6,,5q1[8:1],,3-6[8:1],,5,,3,,1-6[8:1],,4,,1,,2,,
8<5[8:1],,,,8/4q1[8:1],,3,,4/8q5[8:1],,,,8/4>1[8:1],,3,,4/8<5[8:1],,,,
4q1[8:1]/8,,3,,4/8q5[8:1],,,,1>8[4:3]/8<1[4:3],,,,1b/8b,,,,,,,,,,,,,,
3/7,,2,,1/5,,7,8,,6,6,4,5,2,4,4,3,5,
4b>1[8:1],,,,4/7,,6,,5>2[8:1]/1,,,,5/8,,7,,6>3[8:1]/2,,,,6<5[8:3],,,,
1h[8:3]/6,,,,,,,,
3/4,,2/5,2/5,,3,4,1,5h[8:1],,3,6h[8:1],,4,7,,7/5,,3/6,,5,2,,2-7[8:1],4,,4h[8:1],,
,,5,,6<1[8:1],,,,6/3,,4,,5<8[8:1]/1,,,,2/5,,3,,4<7[8:1]/8,,,,
4-8[8:1]/2,,3,,4bqq1[1:1]*pp7[1:1],,,,,,,,,,,,,,,,,,,,,,,,1/8,,6/5,,3/4,4/2,,8/1
,2/7,3/6,4/5,,1p4[8:1]/8q5[8:1],,,,8b/1b>8[8:13],,,,,,,,,,,,,,
{32}7,6,5<8[32:22],,,,,,,,,,,,,,,,,,,,,,,,,,,,,,,,,,
{16}8q1[8:12],,,,,,,,,,,,,,{32}2,3,4h[16:17],,,,,,
{8},,,,,,,1b,,
