&title=小石DISCO
&artist=游戏脉冲 feat.本墨置子
&first=0
&des=Rotifer@ × Glowen × Holinality
&clock_count=4
&lv_5=13+
&inote_5=(123)
{1}
,
||Rotifer@
{8}7x/8hx[8:1],5,2x/1hx[8:1],4,{16}7,8,,1/6,,5,3,4,
{8}2-5[8:1],2,1-6[8:1],1,{16}4,4,,3h[16:3],5h[16:2],,,,
{8}3x/4hx[8:1],1,6x/5hx[8:1],8,{16}3,4,,2/5,,1,7,2,
{8}8-5[8:1],8,4-1[8:1],4,{16}6,6,,7h[16:3],2h[8:1],,,,
{8}3x/5hx[8:1],1,6x/4hx[8:1],8,{16}3,4,,2/5,,1,6,8,
{8}7-4[8:1],7,3-8[8:1],3,{16}5,5,,6h[16:3],1h[8:1],,,,
{8}7x/1hx[8:1],5,2x/8hx[8:1],4,{16}7,8,,6/1,,5,4h[8:4],,
{8}E4,E3,{4}E2,8-4[8:1]/4,8/1,
{4}5bx-1[8:1]/2bx-4[8:1],2/5,{8}8-4[8:1],4,{16}8,3,,,
{4}2x-5[8:1]/4x-8[8:1],2/4,{16}7,5,6,4,5,3,4,2,
{4}1xb-4[8:1]/5xb-8[8:1],5/1,{8}7-4[8:1],4,{16}7,3,,,
{4}3x-1[8:1]/4x-8[8:1],3/4,{16}7h[16:3],,,6h[16:3],,,{8}5,
{4}4bx-8[8:1]/7bx-5[8:1],7/4,{8}1-5[8:1],5,{16}1,6,,,
{4}7x-4[8:1]/5x-1[8:1],7/5,{16}2,4,3,5,4,6,5,7,
{4}8xb-5[8:1]/4xb-1[8:1],4/8,{8}2-5[8:1],5,{16}2,6,,,
{8}7x/8x,1x/2x,{16}3,5,4,6,2,7,1,8,,,{8}2/7,
{4}4x/3hx[8:1],{16}2h[8:1],5,,,{4}3h[8:1]/4-8[8:1],2-5[8:1],
{4}7h[8:1],{16}6h[8:1],5,,,7h[8:1],5-2[8:1],,,{4}7-4[8:1],
{4}1,{16}4h[8:1],2,,,5h[8:1],3,,,{4}4/6<8-4[16:3],
{16},,,,3,3,6,5,{8}7,{16}8,1,{8}7-4[8:1],1,
{4}7,{16}2-4[8:1],6,,6,{8}2-8[8:1],7,{4}2>5[8:1],
{4}2x/8x,{16}7-5[8:1],3,,3,{8}7-1[8:1],2,{4}7<4[8:1],
{4}7x/1hx[8:1],{16}2h[16:3],4,,4,3h[16:3],5,,5,{4}4>1[8:1],
{4}7xV58-4b[8:3],{8}2,2,3,,{4}1x/7x,
{8}6b,5,7/4,{16}8,2x,,2x-5[8:1],{8}4,{4}5,
{8}6,5,4/7,{16}8,2x,,2x,{8}4,{16}3,5,4,6,
{8}5x-1[8:1],5x,7x-4[8:1],7x,2,2h[4:1],,3pp6[8:3],
{8},1,{4}1h[8:1],1<6[8:1]*>4[8:1],1,
{8}3,4,2/5,{16}1,7x,,7x-4[8:1],{8}5,{4}4,
{4}3qq5[8:3],{8}6,6h[4:1],,,{4}4/7-5[12:1],
{16}7,8x-4[12:1],,,8x,1-3[12:1],,,1,4x-8[12:1],,,4x,5-7[12:1],,,
{16}5,8xh[16:3],,,{8}6x-3[4:1]*>3[4:1],6x,,,,,
{8}3bxq5[2:1],,,6x,{2}6hx[4:1],
{8}7bxp4[2:1],,,2x,{2}2hx[4:1],
{8}2bxqq5[2:1],,,6x,{2}6hx[4:1],
{4}7h[4:1],{8}5,{16}6x,4x,5x,3x,{8}4x,{4}6/2,
{4}1b>4[8:1],{8}6,6b<1[8:1],,5,4,3b<6[8:1],
{8},2,1,8b-3[8:1]*-5[8:1],,8,,,
{8}4/3,1,5/6,8,4/2,1,5/7,8qq4[8:3],
{4}1h[2:1],,,5q4[2:1]/3>6[2:1],
||Glowen
{8}5b/3b,,,,,,,5,
{8}5,5,5,4/6,4v1[8:1]/6v1[8:1],4/6,4x/6x,,
{8}2x/8x,1b/7b,2b/8b,1/6,{16}7,5,,6,4,,8,,
{8}1-5[8:1]/2,4,1xb/8xb,6,{16}7-3[8:1],4,,2,7,,,,
{8}2x/4x,3b/5b,2b/4b,3/6,{16}7,5,,4,5,,2,,
{8}1/3<6[8:1],2,3xb/6xb,7,{16}8,5,,4,6,2,8,1,
{8}7x,8b/2b,7b/1b,8/3,{16}2,4,,3,6,4,5,2,
{8}8-4[8:1],2/7,8xb/1xb,3,{16}2-6[8:1],5,,7,2,,,,
{8}7x/5x,6b/4b,7b/5b,6/3,{16}2,4,,5,4,6,6,3,
{8}7<4[8:1],1/8,2xb-5[8:1]/7xb,1,{16}2,6,,7,3,5,4,6,
{8}2b-5[8:1],,2-7[8:1]/6-1[8:1],,2x/6-3[8:1],,6x/3-8[8:1],,
{8}3-6[8:1]/7-4[8:1],,3x/7>6[8:2],,7bx/Cf,,,,
{8}2>5[8:1],,2v8[8:1]/6bv8[8:1],,2x/6>3[8:1],,6x/3>8[8:1],,
{8}3v5[8:1]/7v5[8:1],,3x/7>6[8:2],,7bx/Cf,,,,
{8}2b-5[8:1],,2v8[8:1]/6v1[8:1],,2x/6-3[8:1],,6x/3-8[8:1],,
{8}3v5[8:1]/7v4[8:1],,3x/7>6[8:2],,7bx/Cf,,,,
{8}2>5[8:1],,2qq8[8:1]/6bpp8[8:1],,2x/6>3[8:1],,6x/3>8[8:1],,
{8}3pp5[8:1]/7qq5[8:1],,3x/7>6[8:2],,7bx/Cf,,,,
{8}2xV41[8:2],,1-5[8:1],8,7xV58[8:2],,8-4[8:1],1,
{8}2xq2[8:2]*p2[8:2],,2w6[8:1],,B2,,8/4,{16},2/6,
{8}2/6-1[8:1],,5,,8/4v5[8:1]*-1[8:1],,4,,
{8}8xv5[8:1]/6x,7x/1x,2x>5[8:1]/8x,,2/6,{16}7,7,,3,3,,
{8}2x-5[8:1]/6x,,2-7[8:1],7-4[8:1],6x-1[8:1]/2x,,6-3[8:1],3-8[8:1],
{8}2x-5[8:1]/6x,,2-6[8:1],7,6xw2[8:1]/2x,,B6,,
{8}4-7[8:1]/8,,4-1[8:1]/2,3,8/4,,5-2[8:1],6,
{8}5/7,,{16}8,8,1,1,6x,6x,,3x/7x,3x/7x,,2,,
{8}4bw8b[8:2]/5b,,,,,,1>4[8:3],,
{8},,8-5[8:1],,,4-1[8:1],,5pp8b[8:5],
{8}5b,,,,,,1>4[8:3],,
{8},,8-5[8:1],,,4-1[8:1],,5pp3b[8:5],
{8}5b,,,,,,2-7[8:1],,
{8},,6-3[8:1],,,7x-2[8:1],,6xqq3b[8:5],
{8}6bx,,,,,,2,,
{16}1x,8x,2,7,3,6,4,5,1x,8x,2,7,3,6,4,5,
{16}1x-5[8:1],,,,16,,,,3/4,,,,8-4[8:1]/7,,,,
{16}2/8,,,,1-5[8:1]/7,,,,1/2,,,,6/8-4[8:1],,7,,
{16}1x-6[8:1]/8x,,,,2,,,,4/5,,,,8-3[8:1],,1,,
{16}7/8,,,,5-2[8:1],,4,,6/5,,,,8-4[8:1],,7,,
{8}1x/8x,3,5q5[8:2]*p5[8:2],,5qq3[32:5]*pp7[32:5],,B5,,
{8}6x,3x,5/4p4[8:2]*q4[8:2],,4pp6[32:5]*qq2[32:5],,B4,,
{8}3x,5x,4/6,3,4/5,6,3,5,
{8}4/6,,4qq5b[8:2]/6pp5b[8:2],,B5f,,,,
||Holinality
{16}
3xqq4[8:2],,,,,,5x,6x,
7x<4[8:1],,,,7,,,,
2xpp1[8:2],,,,,,8x,7x,
6xpp5[8:2],,,,,,,,
4qq5x[8:2],,,,,,6x,7x,
8x>3[8:1]*<5[8:1],,,,8,,,,
3x/5x,,2,,4/6,,7,,
8<5[8:1]/4>1[8:1],,,,4b/8b,,,,
{16}
2>5[8:1],,,,2/6,,7p3[8:1],,
,,3/7,,2,,1-5[8:1],,
,,6/1,,7,,8w4[8:1],,
,,8,,,,,,
4/6,,5,,3/5,,4,,
4/6,,7,,3/5,,2qq5[8:3],,
6h[8:4],,,,,,,,
,,,,6x>6b[8:6]*p2b[16:6],,,,
6bx,,,,,,,,
,,,,,,1,,
{8}15,1,17,1,1>4[8:1]/8<5[8:1],27,1b/8b,,
{16}
3bhx[8:2],,1,,4h[8:1],,1,,
3,5,,26,,7,4,6,
3v8[8:1],,7<4[8:1],,3,,7,,
1,1,,26,,2,5,3,
6bhx[8:2],,8,,5h[8:1],,8,,
6,4,,73,,2,5,3,
6v1[8:1],,2>5[8:1],,6,,2,,
8,8,,73,,7,4,6,
3bx<6[8:1],,2,,8x-4[8:1]/3,,7,,
8,2,,35,,7,4,6,
3v8[8:1],,7-4[8:1],,3,,7,,
1,1,,35,,2,5,3,
6bx>3[8:1],,7,,1x-5[8:1]/6,,2,,
1,7,,46,,2,5,3,
6v1[8:1],,2-5[8:1],,6,,2,,
8,8,,46,,7,3,8,
{16}
2bx>5[8:1],,,,2-6[8:1]/8-5[8:1],,,,
2pp5[8:3]/8,,,,2/7,,,,
8w4[8:1],,,,8<1b[8:2]*>7b[8:2],,,,
8b,,,,,,,,
{16}
8bx<5[8:1]/3x,,,,8-4[8:1]/2-5[8:1],,,,
8qq4[8:3]/2,,,,8/2,,,,
1w5[8:1],,,,1>8b[8:2]*<2b[8:2],,,,
1b,,,,,,,,
{16}
3bxv8[8:1]/4x,,,,3/5-8[8:1]*-7[8:1],,,,
5-1[8:1],,,,6/5-2[8:1]*-3[8:1],,,,
5-1[8:1],,,,4/5qq5b[8:2]*pp5b[8:2],,,,
B5f,,,,,,,,
{16}
6bx<1[8:1]/5x,,,,6/4-1[8:1]*>1[8:1],,,,
4-8[8:1],,,,3/4-7[8:1]*<7[8:1],,,,
4-8[8:1],,,,5/4pp4b[8:2]*qq4b[8:2],,,,
B4f,,,,,,,,
{16}
1>4[8:1]/7,,,,1/6,,7,,
8-4[8:1],,1,,1h[16:1]/8<5[8:1]*>3[8:1],,,,
8,,,,2x/6x,,7,5,
6,4,5,3,4,2,,,
1-4[8:1]*-6[8:1],,,,1,,,,
3x/7x,,4,,5,4,,,
45,,68,,45,,13,,
36,,5,4,,,36,,
8<5[8:1]/2,,,,8/3,,2,,
1-5[8:1],,8,,8h[16:1]/1-7<6[8:1]*-3<4[8:1],,,,
1,,,,7x/3x,,2,4,
3,5,4,6,5,7,,,
8-3[8:1]*-5[8:1],,,,8,,,,
6x/2x,,5,,4,5,,,
45,,3,4,2,6,5,7,
3,,4xz8b[8:1]/5xs1b[8:1],,,,4bx/5bx,,
{1},
E
