&title=求む!強い奴!
&artist=本山明燮;滨田智之;悠木真一
&first=-0.195
&des=freelancer
&lv_5=14.1
&des_5=freelancer
&inote_5=
(130){4},{24},,,,,,4,5,3,6,2,7,{4}1bx,
{24},,,,,,,,,,,,8,1,7,2,6,3,{4}5bx,
{24},,,,,,,,,,,,7,6,5,4,3,2,{4}8/1,
{24},,,,,,,,,,,,2,3,4,5,6,7,{4}1/8,
{8},,6,1b,1b,1b,6/4,8,
{16}5/3,2,1,8,{8}7/2,5,{16}5/6,7,8,1,{8}2/7,5p6[8:1],
6,4q3[8:1],{4}3,{8}7<4[8:1],4>1[8:1],{4}1<6[8:1],
{32},,,,1,2,3,4,,,,,8,7,6,5,,,,,{8}5h[8:3],{4}4h[4:1],
{16},,6h,5h,{4}4h,{16}3,6,2,7,{8}1b,1bh[8:1],
{24},,,8,1,8,{4}1h[4:1],{24},,,8,7,6,{4}3b,
{8}7/5,6,2/4,3,7/8,6,{4}2xh[4:1]/1xh[4:1],
{24},,,2,1,2,{8}1,{24}8,7,8,{8}7,5,1b,{16}5,5,
{8}4,{16}3,3,{8}7,6/3,{4}6/3,{8}1b,1b,
{16}1/3,2,3,4,{4}3/5,{16}4/6,5,6,7,{4}8/6,
{8}1,{16}8,1,{4}7/2,{8}6/3,5/4,{4}D5,
{32},,,,A8,A7,A6,A5,,,,,A1,A2,A3,A4,{96},,,,,,,,,,,,{24}6,3,5,{4}4,
{16},,,,,,,,5,4,6,3,{4}7/2,
{24},,,5,6,5,{8}6h,{24}3,4,3,{8}4h,{24}3/5,2/6,1/7,{4}8b,
,1bh[4:1],{24},,,2,3,4,{4}7b,
{16},,5,4,6,3,{8}5,1b,1b,{4}1,
{8}1,{16}8,1,7,2,{8}8,1b,1,{16}8b,1,7,2,
5,4,6,3,1,2,8,3,7,4,8,3,5b,8,6,1,
8,4,5,3,6,1,7,5,6,2,7,1,8b,3,7,2,
4,3,7,5,6,4,5,1,2,3,4,5,6b/2b,7/3,8/4,1,
2,3,4,5,6,7/3,2xV46[24:5]/6xV82[24:5],5x/1x,4x/8x,7x/3x,{8}6x/2x,{24},,,,,,,,,3,
4,3,{8}4-7[12:1],{24}7-4[12:1],8,7,,,,,,,,,,,,,,,,6,
5,6,{8}5-2[8:1],2-6[8:1],5,,,5,
6/4,7,5/3,2,7/5,1,{4}3h[4:1]/6h[4:1],
{24},,,6,4,5,{4}3xh[4:1],{24},4x,5x,6x,7x,8x,{4}1xh[2:1],
{8},,,2,{16}5,3,6,4,7b,4,{8}6h[8:1],
{16},1,7,3,5,4,6,3,7/2,3,5,4,7b,2,6,3,
5,4,5,6,7,8,4,3,2,1,5,6,3/7b,8,1,2,
8/3,4,5,6,2/7,8,1,2,3/6,4,5,6,{8}7/3,8/4,
5/1,2xh[8:1]/6xh[8:1],,7/3,,,8-4[8:1],1-5[8:1],
8-5[8:1],1-4[8:1],{12}8,,1x,{48},,,,,,,,,,,,{16}7,5,6,2,
4,3,8,6,7,1,3,2,{4}6h[4:1],Cfh[1:1],
,8b,8b,B4/B3/E4f,
E
