&title=Kaleidoscope
&artist=qfeileadh/AYhaz
&first=1.61
&des=Hare
&lv_5=13+
&inote_5=(150)
{16}
8/1h[1:2],,,,,,,,,,3,,,,,3q6[2:1],,3,,,,,,,,,,,,,,,8h[2:1],,,,,,,,6-3[8:1],,6,,,7,,8-5[8:1],,,,,,,,8-4[8:1]*-3[8:1],,,,,,,,,2h[8:5]/3,,,,,,,,,,5,,,,,5q8[2:1]/4p1[2:1],,5/4,,,,,,,,,,,,,,,1/8h[2:1],,,,,,,,6,,7/6,,,6/5,,6/5>2[8:1],,,,,,,,5p1[8:1]*-8[8:1],,,,,,,,,1h[4:1]/8,,,,3,,2/3,,3/4,,4h[8:1]/5h[8:1],,,4/5,,,1/8,,1/8h[16:3],,,6,,,6/7,,5/6,,4/5,,3,4,,6,5,,
{2}
1b>8[2:5]/8b<1[2:5],,,,,,5h[8:3]/4>1[8:1],4h[8:3]/5<8[8:1],
{16}
2,2,4,3h[8:1],,8,5,8,4,4,7,5,6,3,5,4,7,7,5,6h[8:1],,2,4,2,7,7,5,6,3,5,4,6,2,2,4,3h[8:1],,8,1,8,2,4,3,5,4,6,5,7,4>1[8:1]/8<5[8:1],,,,,,,,8-3[8:1]/4-7[8:1],,,,,,,,4,8,3,6h[8:1],,2,4,3,7,4,5,4,6,4,5,4,7,5,6,3h[8:1],,7,5,6,3,5,4,5,2,5,4,5,2,2,4,3h[8:1],,7,5,6,1,8,1,7,1,8,1,6<1[8:1]/1>4[8:1],,,,,,,,4-1[8:1]/1-6[8:1],,,,,,,,,7,5,6,5h[8:1],,8,1,8,2,4,3,4,2,5,4,5,3,3,1,2h[8:1],,6,8,7,4,5,4,5,3,6,3,6,1,8,2,7h[8:1],,3,4,3,6,5,7,7,3,4,2,
{2}
2>5[8:1]/5<8[8:1],8-5[8:1]/5-2[8:1],
{16}
,
{8}
1>4[8:1],1,8,7,6<1[8:1],6,5,4,3<6[8:1],3,2,1,8,1/7,1/7,
{16}
6,5,4>1[8:1],,4,,5,,6,,7<4[8:1],,7,,8,,1,,2<7[8:1],,2,,3,,4,,5,,4/6,,3/7,,,,2>5[8:1],,2,,1,,8,,7>2[8:1],,7,,6,,5,,4<7[8:1],,4,,3,,2,,1,,2/8,,2/8,,7,6,5>2[8:1],,5,,6,,7,,8<5[8:1],,8,,1,,2,,3>8[8:1],,3,,4,,5,,4,,3/5,,2b/6b,,,,6-3[8:1],,6,,7,,8,,1-4[8:1],,1,,2,,3,,5-8[8:1],,5,,6,,7,,1,,1/7,,1/7,,,,2-7[8:1],,2,,3,,4,,5-8[8:1],,5,,6,,7,,1-4[8:1],,1,,2,,3,,5,,4/6,,3/7,,,,1-6[8:1],,2,,3,,4,,5-2[8:1],,6,,7,,8,,1-6[8:1],,2,,3,,4,,5,,6,,7w3[8:1],,,,7b,,,,,,,,,,1/8h[1:1],,,,,6p3[16:5],,6,,,,,,,,,1h[8:3],,,,,,3-6[8:1],,,,,,,,3,,3/4,,,4/5,,5<8[8:1]/6,,,,,,,,5q1[8:1]*-2[8:1]/6,,,,,,,,,1h[2:1]/8,,,,,,,,,,8h[16:7]/1,,,,,1q4[8:3],,1,,,,,,,,,8h[16:6],,,,,,5h[2:1],,,,,,,,6,,5/6,,,6/7,,7/8,,8,1,2,3,4h[4:1],,8,,8,7,6,5,4h[4:1],,1,,1,2,3,4,5h[4:1],,1,,1,8,7,6,5h[4:1],,1,,1,8,7,6,5,4,3/8,,8,1,2,3,4,5,6/4,,4/6,4/6,,3-6[8:1]/5-8[8:1],3/5,,3/5,3/5,,,,5/8,4/7,3/6,2/5,1b/4b,,,,2-7[8:1]/4,,3,,4-1[8:1],,5,,2/4,,3,,1/4,,
{24}
4,3,2,
{16}
1/8w4[8:1],,7,,8,,,,4,5,6,7,8/5,,,,5-8[8:1]/8,,4,,5/7-2[8:1],,6,,4/7,,5,,4/5,,
{24}
5,6,7,
{16}
1w5[8:1]/8,,2,,1,,,,4,3,2,1,8/5,,,,5/8-5[8:1],,1,,6/8,,,,8,,7,,4/8<5[8:1],,
{24}
4,3,2,
{16}
8w4[8:1],,1,,8,,,,1,,2,,3/4,,2,,2,,6,5,5/7,,8,,8,,3,4,3-8[8:1],,8,,3/6-1[8:1],,5,,2/6,,,,1/4,3/8,2/7,1/6,5b/8b,,,,6-3[8:1]/8,,7,,6/1-4[8:1],,8,,1/5,,6,,2/5,,
{24}
1,2,3,
{16}
4w8[8:1]/5,,6,,4,,,,8,1/7,2/6,3/5,4,,,,3-6[8:1]/5,,2,,8-5[8:1]/3,,7,,1/8,,2,,1>4[8:1]/6,,
{24}
5,6,7,
{16}
1w5[8:1],,8,,1,,,,4,3,2,1,8/7-2[8:1],,,,7,,5,,4-1[8:1],,,,4,,6,,7/2,,
{24}
8,7,6,
{16}
4>1[8:1]/5,,3,,4/5,,,,8,,7,,5/6,,7,,7,,3,4,3/4,,2,,2,,5,4,5<8[8:1],,4,,5-1[8:1],,4,,5-8[8:1],,4,,5,,2,,1,,2/3,,2/3,,8,1,8,,6/7,,6/7,,1,8,1>4[8:1],,8,,1-5[8:1],,7,,1-4[8:1],,6,,1w5[2:3],,7,,1b/8b,,,,,,,,,,,,,,,,,,,,,,,,,,1h[4:1]/8,,,,,,4/5h[4:1],,,,,,,,2/3,,2/3,,,3,,4w8[8:1]/5,,,,,,,,4/5w1[8:1],,,,,,,,,1h[2:1]/8h[2:1],,,,,,,,,,6/7,,,,,4/5,,4h[8:3]/5h[8:3],,,,,,,,,6/7,,,,,,1h[8:3]/8h[8:3],,,,,,,,2/3,,2/3,,,3/4,,4>1[8:1]*<7[8:1]/5,,,,,,,,4/5>2[8:1]*<8[8:1],,,,,,,,,1b/8b,1,8,2,4,3,4,3,5,4,5,2,7,3,6,6h[8:1],,2,1,2,1,3,8,3,7,5,6,4,5,4,6,2,4b,3,5,4,6,5,7,1,8,2,4,3,6,2,8,1h[4:1],,6,5,4,3,2,1,8h[4:1]/3,,3,4,5,6,7,8,1,2b/6b,6,4,5,2,4,2,4,3,1,3,1,4,8,5,6,4,5b,5,2,4,3,6,5,7,5,8,1,8,2,7,3,6b,6,4,5,2,4,3,7,5,7,4,6,3,5,2,8h[8:1],,5,6,4,5,3,4,1h[8:1],,4,3,5,4,6,5,8h[8:1],,1,4,3,7,5,6,1h[8:1],,8,5,6,2,4,3,8h[8:1],,1,1,4,4,3,3,4/7,,8,8,5,5,6,6,1/5,,5/7,5/7,,2/4,2/4,,1s5[4:1]/8z4[4:1],1/8,,
