&title=化けの花
&artist=なきそ/25時、ナイトコードで。
&first=0
&des=Kurage
&lv_5=14
&inote_5=(180)
{4},,,,
{8}1-4[8:1],,14,6,8-5[8:1],3,58,,
{16}
2b/4b,,,3,4h[8:1],,2,,4h[8:1],,2,,3,4,2,,
4h[8:1],,2,,23,,,4,4,,3,,4h[8:1],,2,,
23,,,4,4,,3,,4h[8:1],,2,,3,4,2,,
4h[8:1],,2,,23,,,4,4,,3,,45,,,,
7b/5b,,,6,5h[8:1],,7,,5h[8:1],,7,,6,5,7,,
5h[8:1],,7,,76,,,5,5,,6,,5h[8:1],,7,,
76,,,5,5,,6,,5h[8:1],,7,,6,5,7,,
5h[8:1],,7,,76,,,5,5,,6,,5h[4:1]/4,,,,
{4}5?-8[4:3],,,,
{8}
3<5[8:1],3,6qq3[16:7],,7,,8,8<6[8:1],
,5,5pp8[16:7],,4,,3,,
2,2-4[8:1],,1-5[8:1],,8,8-6[8:1],,
4,,4,,5,,5,,
6>4[8:1],6,3pp6[16:7],,2,,1,1-5[8:1],
,8-4[8:1],,4,,5<3[8:3],5,3,
,4,4-1[8:1],,7-3[8:1],,2-8[8:1],2,
6-4[8:1],6,2-6[8:1],2,5<4[8:3],,1-4[8:1],,
,,{16}35,,,4,4,,{8}1-4[8:1],8,2,
,35,1-4[8:1],8,21,,{12},46,,
{8}8-5[8:1],,78,1,,5,5,7,
8-5[8:1],1-4[8:1]/7,8,1,,,6-3[8:1]/3-6[8:1],,
,,45,3-6[8:1],4,2,,3,
7,4/6-3[8:1],5,7,,6,8/1-5[8:1],,
1s5[4:2],,,,,8,8qq8[4:2],,
4,,4,,4w8[8:1],,4,,
2b-5[8:1]/6b,,5-3[8:1],6,8-4[8:1],,4V61[4:1],3,
2-6[8:1],,2,8h[4:1],,6,57,8,
1/2-5[8:1],,5-3[8:1],6,7-3[8:1],,1-5[8:1],2-4[8:1],
1,2,6bpp7[4:1],6bqq5[4:1],,,,8,
8-4[8:1],1,2-5[8:1],3,6-2[8:1],,7,8,
1,2-5[8:1]/8-4[8:1],1,28,,6,65,4/7-3[8:1],
,3-5[8:1],1-7[8:1],,1,6-2[8:1],5,6,
4qq4[4:1],8,4<2[16:5],6h[8:3],,,,,
7b-4[8:1]/3b,,4-6[8:1],3,1-5[8:1],,5V38[4:1],6,
7-3[8:1],,7,1h[4:1],,3,42,1,
8/7-4[8:1],,4-6[8:1],3,2-6[8:1],,8-4[8:1],7-5[8:1],
8,7,3bqq2[4:1],3bpp4[4:1],,,,1,
1-5[8:1],8-4[8:1],1,8,,36,8b/1b-4[8:1],4b/5b-8[8:5],
{4},,,,
{16}7b/2b,,6,5,6,,3,4,2h[16:3],,,1,2,,54,,
63,,7,5,7,,3,4,3,,7,,86,,2,,
31,,8,1,8,,2,1,2,,7,8,6,,3,4,
2h[16:3],,,1,2,,54,,63,,8,1,8,1,8,1,
2b/7b,,3,4,3,,6,5,7h[16:3],,,8,7,,45,,
36,,2,4,2,,6,5,6,,2,,13,,7,,
68,,1,8,1,,7,8,7,,2,1,3,,6,5,
7h[16:3],,,8,7,,45,,36,,1,8,2,7,4,5,
{4}4?-1[4:3],,,,
{8}
6>4[8:1],6,3pp6[16:7],,2,,1,1>3[8:1],
,4,4qq1[16:7],,5,,6,,
7-3[8:1],,2-8[8:1],2,6-4[8:1],6,2-6[8:1],2,5-8[8:1],5,1-4[8:1],1,5<4[16:5],5,,,
5h[4:1],,4,5/4-6[8:1],,3,,3,2-4[8:1],,6,6,5,5,7,,
3/4h[4:1],,5,4/5-3[8:1],,6,,6,7-5[8:1],,2,2,4,4,3,,
5h[4:1]/7,,4,5/4-8[8:1],,3,3,3,2-4[8:1],,6,6,57,5,6,,
4h[4:1]/2,,5,4/5-1[8:1],,6,6-3[8:1],6,6p3[4:2],,,,,,,,
{4}4qq3[4:3]*pp5[4:7],,,,,,,,
4qq3[4:2]*<6[4:1],,,8b,{8}6,37,1b-5[8:1],5bqq4[4:1]*pp6[4:1],,,,,
5-1[8:1],6,7-4[8:1]/5,8,3-7[8:1]/7,,2,1,
8,1-6[8:1]/7-3[8:1],8,17,,5,54,6/2-6[8:1],
,6-4[8:1],8-4[8:1],,8,3>8[8:1],5,3,
6pp6[4:1],2,6>8[16:5],4h[8:3],,,,,
1bV35[32:7]/7b,,5-2[8:1],6,8-4[8:1],,4V61[4:1],3,
2V41[4:1],,2,8h[8:2],,3,26,7,
1V35[32:7]/8,,5-2[8:1],6,7-3[8:1],7,1-6[8:1],2-5[8:1],
1,2,8b-4[8:1],4bpp5[4:1]*qq3[4:1],,,,,
4-8[8:1],3,2-5[8:1]/4,1,62,7V51[4:1]*-4[8:1],,7,
,3-8[8:1],3,7-3[8:1],,2h[4:1],,4,
5-1[8:1],6,7-3[8:1]/5,8,37,2,1b/8b-5[8:1],4b-1[8:5]/5b,
{4},,,,
{16}2b/7b,,3,4,2,6,5,6,4,7,3,5,1,4,3,4,
2,,45,,7,5,6,5,8,4,5,4,1,3,4,3,
7,,6,5,7,3,4,3,5,2,6,4,8,5,6,5,
7,,45,,2,4,3,4,1,5,4,5,8,6,5,,
2b/7b,,3,4,2,6,5,8,4,6,5,5,3,4,3,5,
2,,36,,8,5,7,5,6,4,5,5,6,4,5,5,
7,,6,5,7,3,4,1,5,3,4,4,6,5,6,4,
7,,45,,3,4,4,5,5-8[8:1],6<3[4:1],3,4,{4},
4h[4:4],,,,
5,,,,
