&title=アンヘル
&artist=聖女れりあ
&first=0.02
&des=Tane
&freemsg=聖女れりあ
&wholebpm=
&des_1=Tane
&des_2=Tane
&des_3=Tane
&des_4=Tane
&des_5=Tane
&lv_4=10
&lv_5=13
&inote_4=(184){1},,,,,,,
{8}
3h[4:1],,,,
3,,3,,
2-5[8:1],,,,
78,,78,,
6h[4:1],,,,
6,,6,,
7-4[8:1],,,,
21,,21,,
2h[4:1],,,,
2,,2,,
3-8[8:1],,,,
65,,65,,
7h[4:1],,,,
7,,7,,
6-1[8:1],,,,
34,,34,,
34,,2,,
3,,3,,
56,,7,,
6,,6,,
4,4-1[8:1],,5,
,5-8[8:1],,4,
,3,3,3,
4,4,4,,
65,,7,,
6,,6,,
43,,2,,
3,,3,,
5,5-8[8:1],,4,
,4-1[8:1],,5,
,6,6,6,
5,5,5,,
3-1[8:1]/4-7[8:1],,,,
5-2[8:1]/6-8[8:1],,,,
3-1[8:1]/4-7[8:1],,,,
5-2[8:1]/6-8[8:1],,,,
3-8[8:1]/4-6[8:1],,,,
56,,,5b^2[2:1]/6b^1[2:1],
,,,,
,,,,
21,,3,,
2,,2,,
87,,6,,
7,,7,,
1,1-4[8:1],,8,
,8-5[8:1],,1,
,2,2,2,
1,1,1,,
78,,6,,
7,,7,,
12,,3,,
2,,2,,
8,8-5[8:1],,1,
,1-4[8:1],,8,
,7,7,7,
8,8,8,,
3v8[8:1]/5-8[8:1],,,,
6,6,,,
3v8[8:1]/5-8[8:1],,,,
6v1[8:1]/4-1[8:1],,,,
34,34,,,
56,56,,,
34,34,,18,
,1,8,27,
{6}
3bqq6[8:5],,,
,,,
6pp3[8:5],,,
,,,
6pp3[8:5],,,
,,,
3qq6[8:5],,,
,,,
7,5,4,
3,8,7,
6,4,3,
2,7,6,
5,3,2,
1,6,5,
7,78,16,
2,12,38,
{12}
5,,6,,7,,
8,,1,,2,,
3,,3,,2,,
1,,8,,7,,
6,,6,,7,,
5,,4,,3,,
2,,38,,47,,
7,,16,,25,,
{16}
3,,,,
4,,,,
3,,3,,
6,,6,,
{8}
4,4,5,5,
4-1[8:1],,,,
{16}
56,,,,
12,,,,
3,,3,,
4h[4:3],,,,
3,,,,
2,,,,
1,,,,
,,,,
{8}
3,,78,,
2,,21,,
1-5[8:1],,8-4[8:1],,
1-5[8:1],,,,
{16}
43,,,,
87,,,,
6,,6,,
5h[4:3],,,,
7,,,,
7,,,,
8,,,,
,,,,
{8}
6,8,7,,
2,1,3,,
18,,81,,
8w4[8:1],,,,
{4}
3h[8:27]/6h[8:27],,,,
,,,,
,,,,
{8},,,,
3,6,3,6,
{8}
3h[1:1],,,,
7,,7,,
6h[1:1],,,,
2,,2,,
3h[1:1],,,,
8,,8,,
6h[1:1],,,,
1,,1,,
2h[1:1],,,,
8,,7,,
7h[1:1],,,,
1,,2,,
3h[1:1],,,,
1,,8,,
6h[1:1],,,,
8,,1,,
2h[2:1],,3,,
4,,5,,
7h[2:1],,6,,
5,,4,,
3h[2:1],,2,,
1,,8,,
6h[2:1],,7,,
8,,1,,
{16}
3,,,,
3,,,,
3h[8:2],,,,
5,,,,
6,,,,
6,,,,
6h[8:2],,,,
4,,,,
2,,,,
3,,,,
3h[8:2],,,,
5,,,,
7,,,,
6,,,,
2,,,,
3,,,,
{8}
,,,,
1h[8:7]/8h[8:7],,,,
,,,,
2,7,2,7,
,,,,
5h[4:2]/7,,,,
4h[4:2],,,,
3,,,,
1,,,,
2/4h[4:2],,,,
5h[4:5],,,,
7,,,,
7,,,,
7h[4:1],,5h[4:1],,
4,,4,,
2,,2,,
1,,,,
12,,78,,
18,,1s5[8:9]/8z4[8:9],,
,,,,
,,,,
,,,7,
,6,6,4,
4-1[8:1],,,,
{16}
34,,,,
17,,,,
56,,7,,
34,,,,
3-1[8:1],,,,
4-8[8:1],,,,
3,,,,
,,,,
{8}
3,6,78,,
6,3,12,,
8^5[8:1],,1^4[8:1],,
8^5[8:1],,,,
{16}
65,,,,
82,,,,
43,,2,,
6/5,,,,
6-8[8:1],,,,
5-1[8:1],,,,
6,,,,
,,,,
{8}
6,1,8,,
3,8,1,8<3[8:5],
,,,,
,,,,
{16}
2/5,,,,
56,,,,
35,,7,,
46,,,,
3-7[8:1],,,,
8-5[8:1],,,,
1,,,,
,,,,
{16}
56,,7,,7,,,,
56,,2,,2,,,,
1-5[8:1]/8-6[8:1],,,,,,,,
1-3[8:1]/8-4[8:1],,,,,,,,
{16}
7/4,,,,
43,,,,
74,,2,,
52,,,,
6-2[8:1],,,,
1-4[8:1],,,,
8,,,,
,,,,
{8}
4,7,16,,
5,2,38,3,
,,78,,
78,,61,6,
,,12,,
12,,38,3,
,,18,,
1>7[8:8]/8<2[8:8],,,,
,,,,
,,,,
18,,34,,
56,,,57,
,24,,,
,1b/8b,,,
,,,,
,,,,
&inote_5=(184){1},,,,,,,
{8}
3h[4:1],,4h[8:5],,
5,,,3,
,2,2-6[8:1],,
7h[8:1],,7h[8:1]/8h[8:1],,
6h[4:1],,5h[8:5],,
4,,,6,
,7,7-3[8:1],,
2h[8:1],,2h[8:1]/1h[8:1],,
2h[4:1],,5h[8:5],,
6,6,,3h[4:1],
,7,7-4[8:1],,
8h[8:1],,7h[8:1]/8h[8:1],,
7h[4:1],,4h[8:5],,
3,3,,6h[4:1],
,2,2-5[8:1],,
1h[8:1],,2h[8:1]/1h[8:1],,
1,,78,,
6-4[8:1],1,1,,
2,,34,,
7-5[8:1],4,4,,
4,3-8[8:1],,5-1[8:1],
,4-8[8:1],,6-1[8:1],
,2,3,3,
4,4,5,,
7,8,7,,
2^4[8:1],8,8,,
6,5,6,,
4^2[8:1],5,5,,
5,6-1[8:1],,4-8[8:1],
,5-1[8:1],,3-8[8:1],
,5,5,6,
4,4,3,4,
3-1[8:1]/4-7[8:1],,,,
5-2[8:1]/6-8[8:1],,,,
34,34,,,
56,56,,,
3-8[8:1]/4-6[8:1],,,,
56,5pp2[8:7]/6pp2[8:7],,5b/6b,
,,,,
,,,,
34,,71,,
7,8,7,8,
6,,1,1,
12,,38,,
4,3^8[8:1],,4-1[8:1],
,5-8[8:1],,6^1[8:1],
,4,4,3,
4,4,5,,
65,,2,2,
8,8,1,2,
,8,8,7,
8,7,6,,
5,6^1[8:1],,5-8[8:1],
,4-1[8:1],,3^8[8:1],
,5,5,6,
4,4,3,5,
3v8[8:1]/5-8[8:1],,,,
6,6,,2,
3v8[8:1]/5-8[8:1],,,,
6v1[8:1]/4-1[8:1],,,,
34,34,,7,
56,56,,2,
34,34,,18,
,18,18,27,
{6}
3bqq6[8:5]/6b,,,
8,,,
3/6pp3[8:5],,,
2,2,2,
6pp3[8:5]/3,,,
1,,,
6/3qq6[8:5],,,
7,7,7,
7^1[4:1],5,4,
3^5[4:1],8,7,
6^8[4:1],4,3,
2^4[4:1],7,6,
5^7[4:1],3,2,
1^3[4:1],6,5,
7,78,16,
2,12,38,
{12}
56,,6,5,7^5[4:1],,
8,,1,,2,,
3,,3,4,2^4[4:1],,
1,,8,,7,,
6,,6,5,7^1[4:1],,
5,,4,,3,,
2,,38,,47,,
7,,16,,25,,
{16}
3,,,,
4,,,,
6,,56,,
3,,34,,
{8}
2,34,5-8[8:1],36,
4-1[8:1],,,,
{16}
56,,,,
12,,,,
3,,3,,
4-2[8:1],,,,
4-1[8:1],,,,
4pp8[8:3],,,,
,,,,
,,,,
{8}
3,7,78,78,
6,2,21,12,
1-5[8:1]/8,,1/8-4[8:1],,
1-5[8:1]/8,,18,,
{16}
43,,,,
87,,,,
6,,6,,
5-7[8:1],,,,
5-8[8:1],,,,
5qq1[8:3],,,,
,,,,
,,,,
{8}
6,8,7,7,
3,1,2,2-5[8:1],
,2,8,8,
8w4[8:1],,,,
{4}
3h[8:27]/6h[8:27],,,,
,,,,
,,,,
{8},,,,
36,36,36,36,
{8}
3h[1:1],,4,,
7,7,7,,
6h[1:1],,5,,
2,2,2,,
3h[1:1],,4,,
8,8,8,,
6h[1:1],,5,,
1,1,1,,
2h[1:1],,3,,
8,8,7,,
7h[1:1],,6,,
1,1,2,,
3h[1:1],,4,,
1,8,8,,
6h[1:1],,5,,
8,1,1,,
2,2h[4:1],5,5,
2h[8:3],4,5,6,
7,7h[4:1],4,4,
7h[8:3],5,4,3,
3,3h[4:1],4,4,
3h[8:3],4,5,6,
6,6h[4:1],5,5,
6h[8:3],5,4,3,
{16}
3,,3,4,
3,,3,,
3h[8:3],,4,,
5,,6,,
6,,6,5,
6,,6,,
6h[8:3],,5,,
4,,3,,
2,,2,4,
3,,3,,
3h[8:3],,4,,
5,,6,,
7,,7,5,
6,,6,,
2,5,3,4,
3,,3,,
{8}
,,,,
1h[8:7]/8h[8:7],,,,
,,,,
27,27,27,27,
,,,,
5h[4:2]/7,,,,
4h[4:2],,,,
3,,2,,
1,,,,
2/4h[4:2],,,,
5h[4:5],,,,
7,,7,,
7,,7,,
7h[4:1],,5h[4:1],,
4,4,4-6[8:1],,
4-7[8:1]/2,,4-8[8:1]/2,,
1,,,,
12,,78,,
18,,1s5[8:9]/8z4[8:9],,
,,,,
,,,,
,,,7,
,56,4-1[8:1],36,
5-8[8:1],,,,
{16}
34,,,,
17,,,,
56,,7,,
3/4-6[8:1],,2,,
4-1[8:1]*-2[8:1],,,,
4pp8[8:3],,,,
,,,,
,,,,
{8}
3,6,78,78,
6,3,12,12,
8^5[8:1]/1,,8/1^4[8:1],,
1/8^5[8:1],,18,,
{16}
65,,,,
82,,,,
43,,2,,
6/5-3[8:1]*-2[8:1],,7,,
5-8[8:1]*-7[8:1],,,,
5qq1[8:3],,,,
,,,,
,,,,
{8}
6,1,8,8,
3,8,1,1qq8[4:1]/8qq8[4:1],
,8>7[8:3]*>7[8:3],,,
,,,,
{16}
2/5-2[8:1],,,,
56,,,,
35,,7,,
4-8[8:1]/6,,2,,
4^1[8:1]*^7[8:1],,,,
4pp8[8:3]*qq8[8:3],,,,
4,,,,
,,,,
{16}
56,,7,8,7,,16,,
56,,2,1,2,,38,,
1-5[8:1]/8-6[8:1],,,,1-3[8:1]/8-4[8:1],,,,
1-5[8:1]/8-6[8:1],,,,18,,,,
{16}
7/4-7[8:1],,,,
43,,,,
74,,2,,
5-3[8:1]*-7[8:1]/2,,7,,
5-2[8:1]*-8[8:1],,,,
5qq1[8:3]*pp1[8:3],,,,
5,,,,
,,,,
{8}
4,7,16,16,
5,2,38,3/8^5[8:1],
,8,2-7[8:1],2,
5,,6,7-4[8:1]/4,
,7,1-5[8:1],1,
8^5[8:1],,8,2-6[8:1],
,2,8-4[8:1],8,
1>8[8:8]*<2[8:8],,,,
,,,,
,,,,
18,,24,,
7,58,,18,
,34,,,
,5b/7b,,,
,,,,
,,,,
