&title=琥珀の身体
&artist=HIMEHINA
&first=0
&des=MYOU
&lv_5=13+
&lv_6=14
&inote_5=(82)
{1},
{24}63,,5,4,,6/3h[24:7],,,,,,,6,,5,4,,7/2h[24:7],,,,,,,
{24}6,,5,4,,6/3h[24:7],,,,,,,6q4[8:1],,5,4<8[8:1],,3/6,,,,,,,
{24}1-5[12:1],,,34,,,8h[96:1],,,6,,,6/8-4[12:1],,,56,,,1pp3[8:1]*qq7[8:1],,,,,,
{24}1-5[12:1],,,,,,8h[96:1],,,6,,,3/4h[24:6],,,,,,5-3[16:1],,,,,,
{24}8-4[12:1],,,6,,,1h[96:1],,,3,,,3/1-5[12:1],,,34,,,8qq6[8:1]*pp2[8:1],,,,,,
{24}8-4[12:1],,,,,,1h[96:1],,,3-6[12:1],,,5qq4[12:2]*pp6[12:2],,,3,,,,,,,,,
{24}6h[8:1]/5,,,1,,,4/5h[8:1],,,1-5[12:1],,,3V57[8:1]/4h[8:1],,,1,,,,,,,,,
{24}3h[8:1]/5,,,8,,,6/5h[8:1],,,1,,,4-1[8:1]/6-1[8:1],,,37,,,,,,,,,
{24}6h[8:1]/5,,,1,,,4/5h[8:1],,,1-5[12:1],,,3V57[8:1]/4h[8:1],,,1,,,,,,,,,
{24}18,,2,4,,3,5,,4,6,,5,7,,1-4[12:1],8-5[12:1],,2,7,,,,,,
{24}3<6[12:1],,,18,,,34,,,8,,,5/6>3[12:1],,,18,,,65,,,1,,,
{24}4/3-6[12:1],,,18,,,34,,,8,,,5/6-3[12:1],,,4/3<7[12:1],,,6,,,,,,
{24}2q6[12:1],,,71,,,25,,,8,,,5/6p2[12:1],,,28,,,46,,,1,,,
{24}4/3>1[16:1],,,5<7[16:1]/6,,,3qq5[4:1],,,5,,,3,,,,,,8-4[8:5]*-4[8:5],,,,,,
{24},,,7h[192:1],,,6h[192:1],,,5h[192:1],,,3h[192:1],,,2h[192:1],,,1b-3[16:1],,,,,,
{24}1/5-8[12:1],,6,4,,3,5bV31[8:1],,,1v4[12:1],,,5V71[12:1]*v8[12:1]/7,,,,,,,,,2,,,
{24}6/5<8[12:1],,,34,,,15,,,4,,,1qq8[8:1]/2,,,7/8>4[12:1],,,1/5,,,,,,
{24}8-5[12:1],,,64,,,1/8-3[12:1],,,2,,,7/8-5[12:1],,,6,,,1/8>3[12:1],,,2,,,
{24}7/8<5[12:1],,,6,,,1/8>3[12:1],,,2,,,7/8p4[12:1],,,5,,,1b/8b>3[12:1],,,,,,
{24}8/5<8[12:1],,6,4,,3,5bV31[12:1],,,1-4[12:1],,,5V71[12:1]*-8[12:1]/6,,,,,,,,,2,,,
{24}4>1[12:1]/3,,,56,,,48,,,5,,,7/8qq6[8:1],,,5/4qq1[8:3],,,8,,,,,,
{24}7h[8:2],,,,,,,,,6/5<8[12:1],,,4>1[12:1]/3,,,5,,,4,,,8,,,
{24}7/8-4[12:1],,,43,,,8/1-5[12:1],,,3,,,1b/2b-6[12:1],,,4,,,1-3[16:1]/2,,,7,,,
{24}1/5-8[12:1],,7,4,,2,5b>2[12:1],,,2q6[12:1],,,5/6<1[12:1]*q2[12:1],,,,,,,,,3,,,
{24}6-3[12:1]/5-2[12:1],,,3V57[8:1]/4,,,56,,,,,,1v3[24:2]*v7[24:2],,,7-5[24:1]/3-5[24:1],,,1,,,,,,
{24}4-1[12:1]/6,,,82,,,5/4-7[12:1],,,6,,,3/4-1[12:1],,,2,,,5/4<7[12:1],,,6,,,
{24}3/4>1[12:1],,,8,,,5/4<7[12:1],,,8,,,3b/4b,,,1,,{48},,8b/1b<6[12:1],2,3,4,,,,,,,,,
{24}1/4>1[12:1],,2,5,,7,4b<7[12:1],,,7v4[12:1],,,4/3>8[12:1]*v8[12:1],,,,,,,,,7,,,
{24}3-6[12:1]/4-7[12:1],,,5V31[8:1]/6,,,34,,,,,,8V64[8:1],,,26,,,8/4>8[48:5]*p8[48:5],,,2,,,4b<8[48:5]*q8[48:5],
{24},,,,,4b>7[48:6]*p7[48:6],,,,,,4b<1[48:6]*q1[48:6],,,,,,4b>5[48:7]*p5[48:7],,,,,,
{24}4b<3[48:6]*q3[48:6],,,,,,4b,,,,,56,56,,34,34,,18,8/1h[48:35],,8h[48:31],,,,
{2},{72}27,36,5h[72:16]/4h[72:32],,,,,,,,,,,,,,,,{8},5h[8:3],
{8}4h[36:17],,,5,4h[36:17]/5h[4:1],,,5h[8:3],4h[8:3],
&inote_6=(82)
{1},
{24}63,,5,4,,6/3h[24:7],,,,,,,5,,4,3,,5/2h[24:7],,,,,,,
{24}7,,6,5,,7/4h[24:7],,,,,,,6q4[8:1],,5,4<8[8:1],,3/6,,,,,,,
{24}1-5[12:1],,2,3,,8,1,,6,7,,1,8-4[12:1],,7,6,,1q7[8:1]*qq7[8:1],8,,3,,,1,
{24},,,,,8,8,,2,2,,5,5h[24:6],,,,,,6>4[16:1],,,,,,
{24}8-4[12:1],,7,6,,1,8,,3,2,,8,1-5[12:1],,2,3,,8V24[8:1]*V61[8:1],1,,6,,,,
{24},,,,,8,4>2[12:1],,2,7<5[12:1],,5,4pp5[12:2]*qq3[12:2],,,7,,,,,,,,,
{24}6h[8:1]/5,,,1,,4,5h[8:1],,,1-5[12:1],,3V57[8:1],4h[8:1],,,1,,,,,,,,,
{24}3h[8:1]/5,,,8,,6,5h[8:1],,,1,,,4v1[12:1]/6v1[12:1],,1<6[12:1]*>4[12:1],,,,,,,,,,
{24}6h[8:1]/5,,,1,,4,5h[8:1],,,1-5[12:1],,3V57[12:1],4h[8:1],,,1<4[8:1],,,,,,,,,
{24},,2,4,,3,5,,4,6,,5,7,,1-4[12:1],8-5[12:1],,2,7,,,,,,
{24}3<6[12:1],,,18,,4,3,,8,8,,5,6>3[12:1],,1,8,,5,6,,1,1,,4,
{24}3-6[12:1],,2h[8:1]/5,,,4,3,,8,8,,5,6-3[12:1],,,6/3<6[12:1],,36,,,2h[24:3],,,,
{24}2q6[12:1],,,71,,5,2,,8,8,,5,6p2[12:1],,2,8,,64,,,1,1,,4,
{24}3>1[16:1],,,5<7[16:1]/6,,,3p5[8:1],,,5>5[4:1],,,3,,,,,,4-8[8:5]*-8[8:5],,,,,,
{24},,,7h[192:1],,,6h[192:1],,,5h[192:1],,,4h[192:1],,,3h[192:1],,,1b-4[16:1],,,,,,
{24}1/5-8[16:1],,7,5,,3,5bV31[12:1],,,1v4[24:1]/8,,5V71[12:1]*v8[12:1]/6,,,,,,,,,2,3,,6,
{24}5<8[24:1],,,34,,15,,,4,7,,1qq8[8:1],4,,8>4[12:1],,,1/5h[24:3],,,,,,8,
{24}1-4[12:1],,3,5,,8,1-6[12:1],,7,5,,2,1-4[12:1],,3,5,,8,1<6[12:1],,7,5,,2,
{24}1>4[12:1],,3,5,,8,1<6[12:1],,7,5,,2,1v4[16:1],,4v7[16:1],5,,1,8<5[12:1],,5b,,,,
{24}8/4>1[16:1],,2,4,,6,4bV68[12:1],,,8-5[24:1]/1,,4V28[12:1]*-1[12:1]/3,,,,,,,,,7,6,,3,
{24}4>1[24:1],,,56,,48,,,5,2,,8qq6[12:1],5,,4qq5[12:2],,,8,,,,6<4[12:2],,6h[24:7],
{24},,,,,,,,6,5<8[12:1],,3,4,,,2>5[12:1],,3,,,6,2,,8-6[16:1],
{24}1-3[16:1],,5,4,,8-4[16:1],1-5[16:1],,5,4,,8b,1b,,6v3[12:1],4,,8,1-4[12:1],,6b/2b,,,,
{24}1/5-8[12:1],,8,5,,2,5b>2[12:1],,,2q6[24:1]/1,,5/6<1[12:1]*q2[12:1],,,,,,,,,3,4,,6-4[24:1],
{24}4V28[12:1],,,7,,7,,,5,1,,8v6[24:2]*v2[24:2],4,,2-4[24:1]/6-4[24:1],,,,,,,,,5,
{24}4-1[12:1],,2,8,,5,4-7[12:1],,6,8,,3,4-1[12:1],,2,8,,5,4<7[12:1],,6,8,,3,
{24}4>1[12:1],,2,8,,5,4<7[12:1],,6,8,,3,4b,,2,8,,{48}6b/4b,73,8<5[12:1]/2,,,,6b/1b,,,,,,,,
{24}8/4>1[12:1],,1,4,,7,4b<7[12:1],,,7v4[24:1]/8,,4/3>8[12:1]*v8[12:1],,,,,,,,,6,5,,2-4[24:1],
{24}4V68[12:1],,,7,,7,,,4-2[24:1],2V86[12:1],,8,3,,5,,,4,4>8[12:1],,,17,,,5b/4b<8[12:1]*q8[12:1],
{24},,,,,4b>7[12:1]*p7[12:1],,,,,,4b<2[48:5]*q2[48:5],,,,,,4b>5[8:1]*p5[8:1],,,,,,
{24}4b<4[8:1]*q4[8:1],,,,,,4b,,,,,78,16,,28,37,,68,5/1h[48:35],,8h[48:31],,,,
{2},{72}27,36,5h[72:16]/4h[72:32],,,,,,,,,,,,,,,,{8},5h[8:3],
{8}4h[36:17],,,5,4h[36:17]/5h[4:1],,,5h[8:3],4h[8:3],
