&title=......
&artist=x0o0x_
&first=-0.4
&des=桂花君
&lv_5=12+
&inote_5=(88)
{1},
{24}3h[4:1]/4h[8:3],,,,,,,,,,,3,4,,,4,,,5,,,6,,,
{24}6h[4:1]/5h[8:3],,,,,,,,,,,6,5,,,5,,,4,,,3,,,
{24}2b-4[12:1]/4h[4:1],,,1,,,,,,5,,6,6-4[12:1],,,2,,,3h[8:1],,,,,,
{24}7-5[12:1]/5h[4:1],,,8,,,,,,4,,3,3-5[12:1],,,7,,,6h[8:1],,,,,,
{24}4<7[12:1],,,3,,,2h[8:1],,,,,8,8q4[12:1],,,17,,,6h[8:1],,,,,,
{24}5>2[12:1],,,6,,,7h[8:1],,,,,1,1h[8:1],,,8,,,2q5[4:1]/6,,5,4,,,
{24}8h[4:1]/2b,,,,,,,,,7,,8,8V64[8:1],,,12,,,3h[8:1],,,,,,
{24}5pp4[16:3],,,,,,5,,,3,,1,1-5[12:1],,,37,,,,,,,,,
{24}6qq3[4:1],,,6,,,3<6[8:1],,,2,,,1h[4:1],,,,,,8,,,72,,,
{24}3v5[12:1]/6h[4:1],,,,,,3,,,7,,,8z4[8:1],,,17,,,,,,3,,,
{16}2>5[12:1],,,6,6>3[12:1],,7,,8q5[12:1],,1,,2h[8:1],,,,
{16}7-3[12:1],,2-6[12:1],2,,,,,8V25[8:1],,71,,2h[8:1],,,,
{8}7h[8:1],6h[8:1],5h[8:1],4h[8:1],7V51[8:1],5,4,3,
{8}2h[8:1],3h[8:1],4h[8:1],5h[8:1],2q5[16:3],4,6,,
{8}8h[8:1],7h[8:1],6h[8:1],5h[8:1],4V62[8:1],3,1,8,
{24}1h[8:1],,,2h[8:1],,,3h[8:1],,,4h[8:1],,5,5V31[12:1],,,46,,7,7-3[16:1],,8,8,,,
{24}7b,,2,2,,6,5,,3,4,,8,1>4[12:1],,1,7<4[12:1],,7,1,,,7,,,
{24}2pp5[16:3],,1,8,,2b,,,6,6,,,8V25[8:1]*V63[8:1],,17,17,,,8,,,,,,
{24}4q8[12:1],,,3h[240:1],,3h[240:1],,,2h[240:1],,,1,1-5[12:1],,,3,,,5-1[12:1],,,7,,,
{24}8qq6[12:1],,,7,,,8pp2[12:1],,,1,,,8w4[12:1],,,7,,,8,,,,,,
{24}2bpp4[12:1],,2,7qq5[12:1],,7,2,,,7,,,1>4[12:1],,1,8<5[12:1],,8,1,,,8,,,
{24}2q6[12:1],,1,8,,2,,,7,7,,8<3[8:1],,,12,12,,6,6h[8:1],,,,,,
{24}8/1-5[12:1],,5-2[12:1],3,,1,,,7,,,8,8-4[12:1],,4-7[12:1],6,,8,,,3,,,1,
{24}1-5[16:1],,,37,,,1/8-4[16:1],,,26,,,18,,,37,,,1b/8,,6,5/7b,,3,
{24}2b-5[12:1]/4,,,,,,8,,,8h[8:1],,4,4qq3[8:1]*pp5[8:1],,,26,,,4,,,,,,
{24}7-4[12:1],,,,,,1,,,1h[8:1],,5,5pp6[8:1]*qq4[8:1],,,37,,,5,,,,,,
{24}2>6[12:1],,,1,,,28,,,7,,8,8-4[12:1],,,17,,,8,,,3,,,
{24}7<3[12:1],,,8,,,71,,,2,,1,1v3[16:1]*s5[16:1],,,37,,,1b,,,,,,
{24}4q8[12:1],,,1,,,3,,,5p1[12:1],,,8,,,6,,,4<8[12:1],,,1,,,
{24}3,,,5>1[12:1],,,8,,,6,,,4<8[12:1],,,3,,,2,,,1>5[12:1],,,
{24}8,,,7,,,6<2[12:1],,,5,,,4,,,3<7[12:1],,,2,,,1,,,
{24}8h[12:1],,,1h[12:1]/7h[12:1],,,2h[12:1]/6h[12:1],,,3h[12:1]/5h[12:1],,,1h[12:1]/2h[12:1],,,46,,,
{24}7b<4[12:1],,,8,,,17,,,3,,2,2>5[12:1]*-6[12:1],,,5-1[12:1],,,2,,,,,,
{24}7-5[12:1],,,8,,,2-4[12:1],,,1,,8,8q8[8:1]*p8[8:1],,,7,,,,,,,,,
{24}7pp2[4:1],,,7,,,2<7[8:1],,,3,,,4h[8:1],,,,,,5,,,63,,,
{16}7/2q6[12:1],,,1,8p4[12:1],,,1,{24}2>5[12:1],,,,,6,6,,,8,,,
{24}1pp3[12:1],,1,7qq5[12:1],,7,1,,,7,,,2-5[12:1],,2,8-5[12:1],,8,2,,,8,,,
{24}3pp2[16:3],,4,5,,3b,,,8,8,,,1V74[8:1]*V36[8:1],,82,82,,,1,,,,,,
{24}2,3,4,1,2,3,8,1,2,7,8,1,6,7,8,5,6,7,4h[8:1],,,3,,,
{24}7,5,6,2,4,3,8h[12:1],,2,6,3,5,4-8[12:1],,,7/5-1[12:1],,2,4b,,,,,,
{24}7-4[12:1],,7,3v1[12:1],,3,7,,,3,,,8<5[12:1],,8,2pp4[12:1],,2,8,,,2,,,
{24}7V53[12:1],,8,2,,7,,,1,1,,4>6[8:1],,,35,35,,8,8h[8:1],,,,,,
{24}8-4[12:1]/1,,4<7[12:1],2,,8,,,3,,,1,1-5[12:1],,5>2[12:1],7,,1,,,6,,,8,
{24}8bp4[16:1],,,26,,,8b/1q5[16:1],,,37,,,1/8b,,,26,,,5b/4b,,2,1b/3b,,7,
{24}8b/6b,,,,,,45,,,,,3,4<7[12:1],,,2v5[12:1],,,,,,,,,
{24}8,,,8,,,1h[8:1]/7h[8:1],,,,,6,5>2[12:1],,,7v4[12:1],,,,,,,,,
{24}1,,,2,,,8h[8:1]/3h[8:1],,,,,6,4>1[12:1],,,7qq5[12:1],,,,,,,,,
{24}8,,,7,,,1h[8:1]/6h[8:1],,,,,3,5,,,28,,,4,,,17,,,
{24}6,,6,5,,7h[8:1],,,8,7,,3,4,,4,2,,8h[8:1],,,1,8,,,
{24}3,,3,4,,2h[8:1],,,1,2,,6,5,,5,7,,1h[8:1],,,8,1,,,
{24}6,,6,4,,8h[8:1],,,5,7,,3,5,,5,1,,4h[8:1],,,2,3,,,
{24}1,,1,5,,3h[8:1],,,6,4,,7,3,,3,4,,4,5,,5,6p4[8:3],
