&title=Squashmusic.meme
&artist=SZAN
&first=0.03
&des=DianaCathy
&des_5=DianaCathy
&lv_5=13
&inote_5=(140){4},,,,,,,,{1}7-2[2:3],
,{32}E8,
B8,B1,E2,,,,,E8,B8,B1,E2,,,,,E8,B8,B1,E2,,,,,E8,B8,B1,E2,,,,,E8,
B8,B1,E2,,,,,E8,B8,B1,E2,,,,,E8,B8,B1,E2,,,,,E8,B8,B1,E2,,,,,E8,
B8,B1,E2,,,,,E8,B8,B1,E2,,,,,E8,B8,B1,E2,,,,,{8}C,2x/7x,
{32}1bx/8bx,B1/B8,Cf,B5/B4,{4},,,{16},,{4}8<5[8:1],
4>1[8:1],8<5[8:1],4>1[8:1],
8<5[8:1],4>1[8:1],8<5[8:1],4>1[8:1],
8-6[8:1],1-5[8:1],8-4[8:1],1-3[8:1],
8-6[8:1],1-5[8:1],7-3[8:1],2-6[8:1],
5,3/5,4,5/7,
4,6/4,5,4/2,
7/1,2/8,1/7,2/8,
8-4[8:1],7-3[8:1],6-2[8:1],5/6b,
{8}1,3,4/6h[2:1],4,{16}2,2,,4,{8}4,5/7,
8,6,5/3h[2:1],5,{16}7,7,,5,{8}5,4/2,
{32}1x,2x,3x,4x,5x,6x,7x,8x,1x,2x,3x,4x,5x,6x,7x,8x,1x,2x,3x,4x,5x,6x,7x,8x,1x,2x,3x,4x,5x,6x,7x,8x,
1x,2x,3x,4x,5x,6x,7x,8x,1x,2x,3x,4x,5x,6x,7x,8x,1x,2x,3x,4x,5x,6x,7x,8x,{4}1xh[4:1]/5xh[4:1],
{8},2,6,3,{16}7,7,,4,{8}4,8/5,
4/8,7,3,6,{16}2,2,,5,{8}5,1/4,
1,{16}6,5,{8}7,{16}3,4,{8}2,{16}2,3,,3,4,5,
{4}4-8[8:1],7-5[8:1],1-3[8:1],1/8-4b[8:1],
{1}8-6v5-3<4V27[4:11],
,,6V42V86[2:1],
{4}4,1p5[8:1]*q5[8:1],,,,6,
5,4,
3,2-6<7-3>2[4:1],,7x-2v5b[4:1],
,,{2}1x<3[4:1],
{4}1,7<5[8:1],8v3[8:1],7<5[8:1],
8v3[8:1],7<5[8:1],8v3[8:1],7,
2>4[8:1],1v6[8:1],2>4[8:1],1v6[8:1],
2>4[8:1],1,8,7/3,
5h[8:5],4-1>3[4:1],,5b,
6/3,4-1-3[4:1],5-8b[8:1],5b,
1>3[8:1],8q4[8:1],1p5[8:1],8,
{1}Cfh[8:9],
{32}8x,7x,6x,5x,{4},,{16},,{4}7/6,
3/2,5/4,{2}8/1pp1[8:1],
{4}6b,{16}6,5,{8}7,{16}6,5,{8}7,{16}6,5,{8}8,
{16}6,5,{8}8,{16}6,7,{8}8,{16}1,8,2,7,1-5[8:1],8,2,7,
{4}1b,{16}3,4,{8}2,{16}3,4,{8}2,{16}3,4,{8}1,
{16}3,4,{8}1,{16}3,2,{8}1,{16}8,1,7,2,8p1[8:1],1,7,2,
{4}8b,{16}8,7,6,5,{4}4<8[4:1],{16}8/4,1,2,3,
{4}4,{32}8/4h[16:1],7,{16}6,,,E2,B6,B3,E8,B2,B5,E3,B8,
{4}Cf,{8}4/3h[8:1],4,3h[8:1]/5-1[8:1],6,5/2-6[8:1],3,
2/7,8-4[8:1],7/3,8/2,1,2,{16}3>1[8:1]/6<8[8:1],6/3,3/6,6/3,
{4}3/6,{16}8,1,7,2,6,3,5,4,5,3,6,4,
5,4,6,3,7,4,6,2,7,3,7,3,7-3b[8:1],3,7,3,
{4}7,{16}6,6,2,2,5,5,1,1,6,6,3,3,
5,5,4,4,6,6,3,3,7,7,2,2,8-4[8:1],1,7,2,
{4}8b,{16}3,3,7,7,4,4,8,8,3,3,6,6,
4,4,5,5,3,3,6,6,2,2,7,7,1,1,8,8,
{8}2b,3b,{16}4,5,3,6,5,6,3,5,4,5,3,6,
5,6,4,6,5,6,3,5,4,5,3,6,{32}1b,B1,C,B5,,,,,{1}4bh[4:1]/5bh[4:1],
{4}Cf,E8f,E4f,1bxh[4:1]/8bxh[4:1],
{32},E8/E2,B7/B2,B6/B3,{8}E6f/E4f,,,,,,,{4}Cf,
E4f,E8f,5x-1b[8:1],
{1}5bw1[8:25],
{2},,,,,E4,
{1}1x>1[4:5],
{4},,,,5v3[8:1]/6v4[8:1],
5/6,6v3[8:1]/5v2[8:1],6/5,
7-3[8:1],7/8-4[8:1],8/7-3[8:1],7/1,
6bV84b[8:1]/5b-1-3b[8:1],5x/6x,1,3/2,
4v6[8:1]/3v5[8:1],4/3,5v3[8:1]/6v4[8:1],5/6,
2/5,5/4,1/3,2/8,
{1}8/5-8[2:1],
{4}7V53[4:1],3V57[4:1],7V53[4:1],3V57[4:1],
7V53[4:1],3V57[4:1],7V53[4:1],3V57[4:1],
A3f/7V53[4:1],A7f/3V57[4:1],A3f/7V53[4:1],A7f/3V57[4:1],
A3f/7V53[4:1],A7f/3V57[4:1],A3f/7V53[4:1],A7f/3V57[4:1],
A3f/7V53V57[2:1],2/A7f,A3f/7V53V57[2:1],1/A7f,
A3f/7V53V57[2:1],2/A7f,A3f/8>3[8:1],8,
2V46[4:1],6V82[4:1],2,6,
{32}1b/8b,2/7,6/3,4bh[32:5]/5bh[32:5],,,,,,,,,,,,,{4}2b/7b,8b/1bw5[8:1],
{8}A1,,,,,,,C,
E
