&title=pique
&artist=かねこちはる
&first=0.05
&des=9light
&lv_5=14
&inote_5=(162)
{1}
,
{8}
4b/2hx[4:1],,1,,8h[16:3]/3,{16},1,,,37,,
{16}
,,6/5,,8,,6,5,7,,{16}1,,28,,3,,
{8}
4b/2hx[4:1],,1,,8h[16:3]/3,{16},1,,,37,,
{16}
,,6/5,,8,,6,5,7,,{16}1,,2h[8:1]/8h[8:1],,,,
{8}
5/6,,8/4x,,4/3h[16:3],{16},1,,,82,,
{16}
,,3/5,,1,,3,4,2,,8,,6h[8:1]/2,,,,
{8}
4/3,,1/5x,,5/6h[16:3],{16},8,,,17,,
{16}
5x/6x,,24,,78,,46,,{16}2/1-5[8:1],,38,,1>8[1:1],,{8},
{4}
6,6,7,8-2-4-6[4:3],5,6,7,8<1[1:1],
3,3,2,1s5[4:2],3,2,{12}B1/E1/E2,C,{24},B3/B7,,,B5,,,,
{8}
2hb[4:1]/4,,1,38,7hb[4:1]/5,,8,16,
3hb[4:1]/4,,1,48,6hb[4:1]/5,,8,15,
{16}
3b,4,3,4,2,5,2,5,1,6,1,6,8z4V61[4:2],7,8,7,
{4}
8,,Ch[4:1],,
{4}
B6f/B7/B8/E8/E7/E6/1b,{16}2,4,3,4,2,4,3,4,2,4,3,4,
2,4,3,5,4-8[8:1],6,5,,4<7[8:1]/8,,,,2h[8:1]/4,,,,
{4}
B3f/B2/B1/E2/E3/E4/8b,{16}7,5,6,5,7,5,6,5,6,5,7,,
{16}
8/3h[16:3],,,5h[16:3],,,4h[16:3],,,6h[16:3],,,7,,58,,
1-5[8:1],6,,6,1<6[8:1],,7,,1-4[8:1]/3,,2,,51,,7,,
8z4[4:1],1,,,38,,,,2v3-5[4:1],,3,5,2,,,,
6v7-1[4:1],,7,5,6,,,,2-5-3[4:1],,3,5,2,,,,
6-1-5[4:1],,7,5,6,,,,2h[4:1],,,,{24}E6,B5,B4,E4,,,
{8}
1bs5[4:1]/Cf,,,,6-1[8:1]*-2[8:1],,6b,,
{16}
3h[8:1]/8,,6,,6,4,,5,{4}3v6[8:1],,
{8}
8bz4[4:1]/C,,,,3-8[8:1]*-7[8:1],,3,,
{16}
6h[8:1]/1,,3,,3,5,,4,{4}6v1[8:1],,
{4}
B3f/B2/B1/E2/E3/E4/8b,{16}7,5,6,5,7,5,6,5,7,5,6,5,
7,5,6,4,5-1[8:1],3,4,,5>2[8:1]/1,,,,7h[8:1]/5,,,,
{4}
B6/B7/B8/E8/E7/E6/1b,{16}2,4,3,4,2,4,3,4,3,4,2,,
{16}
1/6h[16:3],,,4h[16:3],,,5h[16:3],,,3h[16:3],,,2,,41,,
{4}8b/4hb[8:1],{16}7h[16:3]/5,,,1h[16:3],,,4h[16:3],,,3,,,
{4}1b/5hb[8:1],{16}2h[16:3]/4,,,8h[16:3],,,5h[16:3],,,6,,,
{16}2/8,,6,5,6,5,,8,17,,3,4,3,4,,1,
{16}2/8,7,6,2,3,4,{32}8,7,6,5,4,3,2,1,8-4[16:2],7,6,5,{8}4-2-8-6-4>5[4:4]/1,,
{2},3h[1:7],
{1},,,,,,
{2},,
{4},45,4,3,
2,1,18,8,
7,6,45,4,
34,3,23,1,
1-4[8:1]/8-5[8:1],18,{8}24,3,3,4,
75,6,6,5,24,2,3,4,57,7,64,,
24,3,57,6,14,2,58,7,
{32}
1/8,2,3,4,5,6,7,8,1,2,3,4,5,6,7,8,{4}1/5,4b,
{16}
1b-5[8:1]/8b,7,6,,15,,6,,3-1[8:1]/7-3[8:1],2,8,,37,,,,
8bp4[8:1]/1b,2,3,,84,,3,,2-5[8:1]*-6[8:1],8,1,,2b,,,,
7b/3,,8,1,,7,5,,3b-1[8:1],4,2,5,3,,6,,
8b-4[8:1]/1,,7,1,8,,2,,{24}3,4,3,4,,,{16}2-6b[8:1]/5,,6,,2b/7,,,,{24}7/5h[4:1],,,7,8,1,2,3,4,5,6,7,{16}8,4,1,5,2,6,6,4,5,5,3,,
{24}
3v8[16:2],4,3,4,,,{8}4h[8:1]/3,,{16}6,6h[8:1],,,8,8h[8:1],,,
1,1h[8:1],,,2-6[8:1],,4,3,2/5-2-4-8[8:3],,{8}4,58,,
,,{16}1b/5,26,37,48,
{16}
1bw5[8:1]*w5[8:1]/5,,3,,Cf/1x,,,,6-8[8:1]/2-6[8:1],7,1,,62,,,,
1bq5[8:1]/8b,7,6,,15,,6,,7-4[8:1]*-3[8:1],1,8,,7b,,,,
2b/6,,1,8,,2,4,,6b-8[8:1],5,7,4,6,,3,,
1b-5[8:1]/8,,2,8,1,,7,,{24}6,5,6,5,,,{16}7-3b[8:1]/4,,3,,7b/2,,,,{24}2/4h[4:1],,,2,1,8,7,6,5,4,3,2,{16}1,5,8,4,7,3,3,5,4,4,6,,
{24}
6-1[8:1],5,6,5,,,{8}5h[8:1]/6,,{16}3,3h[8:1],,,1,1h[8:1],,,
8,8h[8:1],,,7-1[8:1],,5,6,7/4-6-1-5[8:3],,{8}3,48,,,,
{16}
2,4,3,,{8}25,25,36,36,47,47,38,38,{16}2,1,3,8,4,7,5,6,{32}B5,B6,B7,B8,B1,B2,B3,B4,{4}C/8pp3>5[4:7],
{1},,
{8}
1x-5[8:1]/2x-4[8:1],,1b/2b,,8h[16:3]/3,{16},1,8,,37,,
{16}
,,6b/5,,7,,2,1,2-6b[8:1],,{16}3,,2/8,,1,,
{8}
8x-4[8:1]/7x-5[8:1],,8b/7b,,1h[16:3]/6,{16},8,1,,62,,
{16}
,,3b/4,,2,,7,8,7-3b[8:1],,{16}6,,7/1,,8,,
{8}
1x-5[8:1]/2x-6[8:1],,1b/2b,,8h[16:3]/3,{16},1,8,,3h[8:3]/7h[8:3],,
{16}
,,,,,,,,7-4[8:1]/2-5[8:1],27,,18,2bx/7bx,C,,,
{8}
1x-5[8:1]/2xv4[8:1],,1b/2b,,8h[16:3]/3,{16},1,8,,37,,
{16}
5x/6x,,24,,7/8,,46,,{16}2/1-6b[8:1],,38,,1bpp4[1:1],,{8},
{4}
5,5,6,7,8qq5[1:1],4,4,3,2,1s5[4:2],5,6,7,8z4[4:1]*s4[4:1]/1,
{8}
,,,,
{16}
3b,4,2,5,6,1,8,7,1b,8,2,7,3,6,4,5,2b,4,1,5,8,6,7,1,8,6,1,7,8,8,8,7,
8bx,7,8,6,8b,5,8,4,8b,3,8,2,
{24}
8bx,1,2,3,4,5,6,7,8,1,2,3,{32}4,5,6,7,8,1,2,3,{4}4>7-5b[2:4]/8-6-2-5[2:4],4/8,
