&title=girls.exe
&artist=rintaro soma
&first=0
&des=HorizontaL‘S HEART
&lv_5=14+
&inote_5=(188)
{1},,
{4}
4qq4pp4[4:13],,,,,,,,,,,,,,,,
4pp4qq4b[4:13],,,,,,,,,,,,,,,,
{8}
6,,6h[8:2],,5,,4,3,,,3h[8:4],,2,,4,,
3,,3h[8:2],,4,,5,6,,,6h[8:4],,7,,5,4,
{16}
3h[16:1],,3h[16:1],,3h[16:1],,3h[16:1],,2h[16:1],,2h[16:1],,2h[16:1],,2h[16:1],,
1h[16:1]/5h[16:1],,1h[16:1]/5h[16:1],,1h[16:1]/5h[16:1],,1h[16:1]/5h[16:1],,8,4,8,4,8,4,8,4,
{24}D1,D2,D3,D4,D5,D6,D7,D8,D1,D2,D3,D4,E6,E5,E4,E3,E2,E1,E8,E7,E6,,,,
{16}3x,4,2,6x,5,7,3x,4,1,6x,5,8,1x,8,2,7-3[22.7#84:1],
{1}3xh[1:2],,
{16}
7b,,,,,,,,
6-8[8:1],,5,4,6,,2-4[8:1],,1,8,2,,
7-1[8:1],,6,5,7,,3-5[8:1],,2,1,3,,
7,,6,,5/4,,3,,2,4,3,5,4,,6h[8:2],,5h[128:1],,5h[128:1],,3h[128:1]/7h[128:1],,2h[128:1],8h[128:1],2h[128:1],8h[128:1],
1h[8:3],,,,,,
{24}
5b,6/2,7/3,8/4,,,
{16}
4,8,4,8,4,,3,4,2,,1,,5,1,5,1,6,2,6,2,7-5[8:1],,8-4[8:1],1,7,,8,,
E6,E7,E8,E1,5,6,7,8,6-8[8:1],,5,4,6,,1h[24:23],,
{24},,E1,,,,E2,,,,E8,,,,,E3,,,,,E7,,,,5bx-1[8:1],,,
{16}
4,6,5,,7,,8,,1,,2,1,2,,7,,6,5,6,,3,4,3,,7,8,7h[8:1],,5,,
{64}5h[128:1],6h[128:1],,,
{16},
{64}5h[128:1],6h[128:1],,,
{16},5h[128:1]/6h[128:1],,5h[128:1]/6h[128:1],,
4,,3,4,2,,1,,7,8,7,8,6,1,6,1,25,,3,4,2,,1/5,,
7b-3[8:1]/8b-4[8:1],,,,7b/8b,,,,
{12}1,1,1,2/8,,,
{16}
4/7,,6,5,6,,3,4,3,4,3,,6,5,7,,
{24}8h[8:5]/E2,E3,E4,E5,,,E2,E1,E8,E7,,,1,2,3,4,,,1,8,7,6,,,
{16}
3,4,2,5,1,6,8,7,1x,2x/8x,,,6x,5x/7x,,,
{8}
2bh[8:2],1,8,7h[8:2],6,5,4h[8:2],3,2,1h[8:2],8,7,
6,5,4,3,
2-5[8:1],1,8,7-2[8:1],6,5,4-7[8:1],3,2,1-4[8:1],8,7,
6,5,4,3,
2h[16:3],1,
{24}8/E3,B3,B4,
{8}7h[16:3],6,
{24}5/E8,B8,B1,
{8}4h[16:3],3,
{24}2/E5,B5,B6,
{8}1h[16:3],8,
{24}7/E2,B2,B3,
{8}6,5,4,3,
2/7,1,8,
7/5,6b,
{24}5,,,
{8}4b/1b,3,
{16}
1/2,8,7,6,1,2,3,4,8,7,6,5,4,3,2,1,
8/4,,4/8,,3,,2,4,3,,6,,7,5,6,,2,,3,4,2,,7,,6,5,7,,1,,2/8,,
3/7,,5,4,6,,2/6,,4,5,3,,8/4,,7,5,6,,1/5,,2,4,3,,1-6[8:1],,8,,7/1,,,,
3-8[8:1],,2,4,3,,6-3[8:1],,7,5,6,,2-5[8:1],,3,4,2,,7-2[8:1],,6,5,7,,4>6[8:2],,3,,2h[8:1],,,,
E4,E5,E6,E7,E8,E1,E2,E3,E4/A8,A7,A6,A5,A4,A3,A2,A1,
{32}A8/E3,E4,E5,E6,E7,E8,E1,E2,D3,D4,D5,D6,D7,D8,D1,D2,{2}D3/Chf[8:4],
{16}
1x,2,3,4,1,2,3,4,1,2,3,4,1,2,3,4,2x,3,4,5,2,3,4,5,2,3,4,5,2,3,4,5,2x,3,4,5,6,7,8,1,6,5,4,3,2,1,8,7,
2x,1,3,8,4,7,5,6,3x,2,1,8,7,6,5,4,
8x,7,6,5,2,3,4,5,1h[8:1],,2,8h[8:1],,3,3,,
7x/1x,2,3,4,7,6,5,4,1h[8:1],,8,2h[8:1],,7,7,,
7x,5,7,5,6h[16:2],,4,5h[16:2],,3,4h[16:2],,3,4,2,,
{24}
1x,2,3,4,5,6,7,8,1,2,3,4,
D8,D7,D6,D5,D4,D3,D2,D1,D8,D7,D6,D5,
{16}
8b,1,2,3,8,7,6,5,2,3,5,4,2,3,5,4,1b,2,3,4,1,8,7,6,4,3,6,7,4,3,6,7,
5b,4,3,2,5,6,7,8,2,3,1,8,2,3,1,8,
{24}
2x,3,4,5/6,7,8,1x-5[8:1]/3x,4,5,6-2[8:1],7,8,1x,,,6x,,,
{16}
,,,,
{24}
4/8b,7,6,,,3/7b,6,5,,,2/6b,5,4,,,,,,1b/4,2,3,,,2b/5,3,4,,,3b/6,4,5,,,
{16}
2x,1,3,8,4,7,5,6,4,5,
{32}
2xb,3,4,5,,,1b,2,3,4,,,8b,1,2,3,,,7b,8,1,2,,,
{16}
3,4,2,,1x/8x,,1/8,,7/3,,,,
{24}
6x,5,6,5,6,5,6-1[8:1],5,6,5,6,5,6bxz2z6b[17.6#486:490],,,,,,,,,,,,,,,,,,,,,,,,
(141)
{1},{8},,
(211.5)
{8}
1-6[8:3],,1,,,,,,,,,,,,,,
4-8[8:3],,4,,,,,,,,,,,,,,
2-5[8:3],,2,,,,,,,,,,,,,,
5-2[8:3],,5,,,,,,,,,,,,,,
8-4[8:3],,8,,,,,,,,,,,,,,
1h[8:6],,,,,,,,,,1-6b[8:1],,1,,,,
Ch[8:1],,,,,,,,,,,,E5,,,,
Ch[8:4],,,,,,,,,,,,C,,,,Ch[8:6],,,,,,,,,,,,
1b/8b,,Cf/B3/B5/B4/B7/B6/B2/E5,,
1,1,2/8,
{16}
7,5,7,5,7,,
8,,2/1,,3,,3,,2,,2,4,2,4,2,,5,,6,,
7-4[8:1],,4,,7,,5-2[8:1],,2,,1,,8-4[8:1],,7,,6-2[8:1],,5,,4x,,3h[8:2],,2x,1,8,7,6x/2x,,,,
8,,8,,7/1,,
2,4,2,4,2,,
1,,7/8,,6,,6,,5/3,,5,4,5,4,5,,E4,E8,E2,E6,
8xb-2[8:1]*-3b[8:1],,,,8xb-6b[8:1]*-5b[8:1],,,,8b,,,,8b,,8bxw4b[8:1],,,,,,,,,,5w1[8:1],,,,,,,,
{16}
1,2,3,4,2,3,4,5,3,4,5,6,4,5,6,7,1,2,3,4,5,6,7,8,
1/6,,,2/5,,,3/4,,2,,1,,8/3,,6,5,7,5,6,,7,,8/1,,
{16}
D3,D4,D5,D6,D7,D8,D1,D2,D3/E7,E6,E5,E4,E3,E2,E1,E8,E7/Ch[8:6],,,,,,,,,,,,,,,,
2,6,2,6,1,7,1,7,8,8,8,8,8bw4b[8:1],,,,8b,,,,
1/7,,,6,5-1[8:1],,2,,3,,4h[8:2],,2x,1,8,7,6h[8:2]/1x,2,3,4,5x,,4x,,{24}4b/8b,3/7,2/6,1/5,,,
{16}
1b,,,,
8/2,,,3,4-8[8:1],,7,,6,,5h[8:2],,7x,8,1,2,3/8x,7,6,5,4x,3,2,1,{24}4xb/8xb,3/7,2/6,1/5,,,
{16}
E2,E3,E4,E5,E6,E7,E8,E1,E2/D7,D6,D5,D4,D3,D2,D1,D8,D7/Ch[8:2],,,,,,,,
8-4[8:1],,,,8b,,,,
{16}
3x,5x,3x,5x,3x,5x,3x,5x,3x,5x,3x,5x,3x,5x,3x,5x,
2x,6x,2x,6x,2x,6x,2x,6x,2,6,2,6,2,6,2,6,
1,7,1,7,1,7,1,7,1,7,1,7,1,7,1,7,
8/D1,8,8/D8,8,8/D1,8,8/D8,8,8w4b[8:1]/D1,8,8/D8,8,8b,,,,
6b,,,,
8/2,,,1,8-4[8:1],,7,,6,,5h[8:2],,4,3,2,1,8/3x,2,1,8,7x,,6x,,{24}5xb/1xb,2/6,3/7,4/8,,,
{16}
7x/5,,B6,,2x/4,,B3,,1/8,,2,7,3,6,4z8[8:5]/5,,,,,,7,,7-3[8:1],,,,,,,,,,
1w5[52#48:3]/Ch[8:6],,,,,,,,,,,,,,,,,,,,,,,,
{16}
E5,E6,E7,E8,E1,E2,E3,E4,
5x,,5x,,4x/6x,,,,2/5,,3,4,3,,6/4,,5,4,6,,4/7,,6,5,6,,3/5,,4,5,3,,
1,,1,,8/2,,,,6/4,,3,4,2,,1/7,,8,6,8,6,1,7,1,7,2-6[8:1],,2,,,,,,
8,,8,,1/7,,,,6h[16:2],,4,5h[8:1],,3,4h[8:1],,2,,,1/7,,,6/4,,3^8[8:1],,{24}8^5[8:1],,,D3,D2,D1,D8,D7,D6,
{16}
4,,4,,3/5,,,,2/8,,1,7,8,,6,,3/5,,3/5,,2/6,,2/6,,
{32}
E1,E2,E3,E4,5x,6x,7x,8x,4x,3x,2x,1x,E1,E8,E7,E6,
{16}
,,,,,,,,1bw5b[8:20],,,,,,,,,,,,,,,,,,,,,,,,,,,,,,,,,,,,,,,,,,,,,,,,,,,,,,
{24}B6,B5,B4,B3,D2,D3,D4,D5,D6,D7,D8,,
