&title=心象蜃気楼
&artist=Orangestar
&first=0
&des=Re:Mikan
&lv_6=13+
&des_6=Re:Mikan
&inote_6=
(190){4},{1},{4},,{16}4,
5,4,5,
{8}4b,2,6/5,8-4[8:1],,8,1,2,
3/5,7,6/4,2-5[8:1],,2,1,8,
7/4,2,6/1,5-1[8:1],,5/2,3,4,
1/5,8,7/3,6h[4:1],,2,3,4,
5b-1[8:1],6,7/5,8-4[8:1],,8,1,2,
3/5,7,8/2,4-8[8:1],,4/7,6,5,
8/4b-8[8:1],1,2/4,3h[4:1],,7,6,5,
4/3,1,6/5,8-4[8:1],,8b,1b,2b,
{2}3-6[8:1]*-8[8:1],7-3[8:1],
{4}1>4[4:1],4qq8[8:3],7-5[8:1],7<2[8:3],
{8}7,,,1h[8:3],,,2,3,
4/1,8-4[8:1],,8/3-8[8:1],,3/5,6,7,
{2}8-5[8:1]*-3[8:1],4-8[8:1],
{4}7-4[8:1],7/1-5[8:1],1/8qq3[8:5],8,
{8}1h[4:1],,,1,,,1,2,
3/4,7-4[8:1],,7/1-5[8:1],,1,8,7,
{2}6-1[8:1]*-3[8:1],2-6[8:1],
{4}8<5[4:1],5pp1[8:3],2-4[8:1],2>7[8:3],
{8}2,,,8h[8:3],,,7,6,
5/8,1-5[8:1],,1/6-1[8:1],,6/4,3,2,
{2}1-6[8:1]*-4[8:1],5-1[8:1],
{4}2-5[8:1],2/8-4[8:1],8/1pp6[8:5],1,
{8}8h[4:1],,,7h[2:1],{16},,,,,,2,3,
{8}4,5/4>1[8:1],,5/4,6,7,{4}8-4[8:1],
{8}8b,,,1<6[8:1]*>4[8:1],1,,,5-8[8:1]*-2[8:1],
5,,,1-5[8:1],1,,,4q8[8:1]/6p2[8:1],
6/4,,,1-5[8:1],1,,,7-3[8:1],
7,,,8<5[8:1]*>3[8:1],8,,,4-7[8:1]*-1[8:1],
4,,,8-4[8:1],8,,,3q7[8:1]/5p1[8:1],
5/3,,,8-4[8:1],8,,,2<3[8:5],
{4}2,,,8h[4:1],
4h[4:1],6<3[2:1],{2}6/5h[4:1],
{4}8b-4[8:1],8,5-1[8:1],{8}5/4,3,
2-5[8:1],8,{4}2,{2}8-4[8:1],
{4}1bqq6[8:3]*pp4[8:3],,,8qq5[2:1]*-3[8:1],
{2}8,{4}4>1[8:1],4-7[8:1]*qq8[2:1],
4b,,,7>2[4:1],
2>5[4:1],5<8[4:1],8-4[4:1],1pp5[2:1],
1b,,,6h[4:1],
2h[4:1],3>6[2:1],{2}3/4h[4:1],
{4}1b-5[8:1],1,4-8[8:1],{8}5/4,6,
7-4[8:1],1,{4}7,{2}1-5[8:1],
{4}8bqq5[8:3]*pp3[8:3],,,1-6[8:1]*pp4[2:1],
{2}1,{4}5<8[8:1],5-2[8:1]*pp8[2:1],
5b,,,2>5[4:1],
5-1[4:1],1<6[4:1],6-2[4:1],1qq5[2:1],
1b,,,3h[4:1],
5h[4:1],{8}4,2-5[8:1],,2/1,8,7,
6b-1[8:1],5,4,3v8[8:1],,3,4,5,
1/6v1[8:1],2,3,4-8[8:1],,4,5,6,
8/7-4[8:1],1,2,3-8[8:1],,3/4,5,6,
8/7v4[8:1],1,2,3h[4:1],,5,6,7,
4/8<5[8:1],3,2/8,1-5[8:1],,1,8,7,
6-1[8:1],5,4/6,3v8[8:1],,3/7,6,5,
4-8[8:1],3,2/4,1-5[8:1],,1/8,7,6,
5v8[8:1],4,3/5,2>5[8:1],,2b,1b,8b,
7h[4:1],,,2h[4:1],,,{4}6h[4:1],
{8},3h[4:1],,,5h[4:1],,,4h[4:1],
,,6,3,7,2,{4}8h[4:1],
{8}1h[4:1],,,7h[4:1],,,{4}2h[4:1],
{8},6h[4:1],,,3h[4:1],,,5h[4:1],
,,4,6,3,7,{4}2h[4:1],
8h[4:1],{8}1,1h[4:1],,7,{4}7h[4:1],
{8}2,2h[4:1],,6,{4}6h[4:1],{8}3,3h[4:1],
,5,5h[8:1],4h[8:1],3h[8:1],2h[8:1],{4}1h[4:1],
{8}2h[4:1],,,2/1h[4:1],,,{4}1/3h[4:1],
{8},3/8h[4:1],,,8,3,7,4,
6-3[8:1],6,2-7[8:1],2,5-8[8:1],5,4-1[8:1],4,
{4}7h[4:1],8>3[8:1],{24}8b/7bp5[2:1],6,5,4,,,,,,,,,,,,,,,{8}4,
3,2-6[8:1],7,{4}2,
8-5[8:1],8q3[2:1],{2}8b,
{4},5h[4:1],1h[4:1],4>5[2:1],
{2}4/2h[4:1],{4}8b-4[8:1],8,
6-1[8:1],{8}6/4,3,{4}2-5[8:1],6-2[8:1],
4-8[8:1],7-3[8:1],{2}2bqq6[8:3],
{4},5-3[8:1],5-7[8:1],5-2[8:1],
5-8[8:1],5qq1[2:1],{2}5b,
{4}8<5[8:1],{8}8/1,2,{2}3-8[8:1]*-6[8:1],
7-3[8:1]*-3[8:1],1bqq6[8:3]*pp4[8:3],
{4},5-8[8:1]*qq2[2:1],{2}5,
{4}1<6[8:1],1-3[8:1]*p6[2:1],{2}1b,
{4},5>1[4:1],1<5[4:1],5>1[4:1],
1<5[4:1],5qq1[2:1]*pp1[2:1],,,,8bv5[8:1]/2bv5[8:1],
{2}8/2,
{16}2,3,4,5,6,7,8,1,{2}6h[4:1]/2b>5[8:1],
{4}7-4[8:1],1-5[8:1],{2}8b-4[4:1],
2b-6[4:1],7b-3[4:1],
{4},4-8[8:1],4/5,5<4[2:1],
{2}5/7h[4:1],{4}1b-5[8:1],1,
{8}4,3,2,1,{4}8-5[8:1]*-4[8:1],8b,
1-5[8:1]*-4[8:1],1b,{2}6b-2[8:3],
{4},3/1,4/8,7/5,
{16}7/4b,6,5,4,3/8b,2,1,8,{4}7/4b-8[8:1],7-4[8:1],
1-5[8:1],8-4[8:1],{2}2b-7[8:1]*-5[8:1],
6b<1[8:1]*>3[8:1],2b-6[4:1]*-6[4:1],
{4},4-6[8:1],4>1[8:1],4-7[8:1]*qq8[8:3],
{2}4b,7bqq7[8:3]*pp7[8:3],
{4},1>5[4:1],5<1[4:1],1q5[4:1],
5q1[4:1],1>4[8:3]*<6[8:3],{8},,,,,,6/4,
5,{4}7/3-8[8:1],{8}3/7,6-1[8:1],
,6/2,3,4,1/5b,8,5/7,6,
5/4,3,6/5,7,4/3,2,1/8,7,
6/5,4,3/2,1,8/7,6,5/4,3,
2/1,8,7/6,5,4/3,1/8,6/5,2/1,
{4}8/7h[4:1],{16}8,1,2,3,{4}4b/6h[4:1],{8}2,3/5,
4/6,5/7-4[8:1],6/8,7-3[8:1],,7-2[8:1],,7-4[8:1],
,7/8,1,2,3-8[8:1],4,5/3,6-1[8:1],
,6/5,4,3,2>5[8:1],1,2/8,7-4[8:1],
,7b,8b,1b,
E
