&title=押ス ft. 重音テトSV
&artist=佐藤ちなみに
&first=0.01
&des_5=/续标识/续标识
&lv_5=14
&des=/续标识/续标识
&inote_5=(162){4},E5,,,,E5,
,,,E5,
{8},,,,E5,
3h[8:1],E3,3h[8:1],E1,3h[8:1],E7,3h[8:1],
{16}4,2,5,1,{8}6h[16:3],8-2[8:1],,7,,,5h[8:1],
{16}3,6,{8}2h[16:3],8-6[8:1],,,,,1h[8:1],
{16}6,2,{8}5h[16:3],3-1[8:1],,,,,8h[8:1],
{16}1,6,{8}2h[8:1],{16}4,3,{8}5h[8:1],{16}3,6,{8}2h[8:1],{16}7,1,
6,8,5,1,{8}4-8[8:1],2,4,2,7-3[8:1],1,
7,1,2-5[8:1],6,2,6,4-8[8:1],6,
4,6,7-3[8:1],1,7,1,5-1[8:1],3,
5,3,2-4[8:1],{16}8,8,{8}2-6[8:1],{16}8,8,,,8,8,
5,7,4,6,{8}3-8[8:1],5,3,5,7-3[8:1],5,
7,5,6-1[8:1],3,6,3,2-6[8:1],4,
2,4,5-1[8:1],7,5,7,2-6[8:1],8,
2,8,7-5[8:1],{16}1,1,{8}7-3[8:1],{16}1,1,,,1,1,
4,2,5,3,{4}6h[4:1],{8}4,4,{4}3h[4:1],
,E7h[4:1]/E6h[8:3]/E5h[2:1],,,B2f/E3/E2,
7h[4:3],{8}2,5,3,4,
,,{4}3h[4:3],{2}E5h[4:1],
{4}6h[4:3],1s5b[4:1],,,3/7,
3h[4:1]/5<5[2:1],,,E5,
1h[4:1],{16}7,2,{8}7,3-6[8:1],6>3[8:1],
{2}3-8[8:1],{4}1/7h[4:1],{8}2,3/6,
4/7,6/3,{4}2h[8:1]/5-1[8:1],2h[8:1],3h[8:1]/8-4[8:1],
3h[8:1],{16}2h[8:1]/5h[8:1],,,5h[8:1]/2h[8:1],,,{8}6h[8:1]/1h[8:1],{16},1h[8:1]/6h[8:1],,,{8}7h[16:1]/8-4[8:1],
7h[16:1],{4}8/7,{8}3h[8:1]/5h[2:1],,,2,
{4}2h[8:1],{16}1h[8:1]/6h[8:1],,,1h[8:1]/6h[8:1],,,{8}2h[8:1]/5h[8:1],{16},2h[8:1]/5h[8:1],,,{8}3h[16:1]/4-8[8:1],
3h[16:1],{4}3/4,1h[8:1],{8}2h[8:1],5,
3,6,{16}4h[8:1]/7h[8:1],,,4h[8:1]/7h[8:1],,,{8}3h[8:1]/8h[8:1],{16},3h[8:1]/8h[8:1],,,{8}2s6[8:1]/1z5[8:1],
3/8,{4}2/1,{8},2h[8:1],4,{16}1,5,
{8}1,7h[8:1],2,{16}6,3,{8}6,4h[8:1],8,{16}3,7,
2,6,1,5,{4}8,8,{12}1/B7,,B6,
1,B5,,{4}1/B4,1,{12}2/E8,,E7,
2,E6,,{4}2/E5,2,{12}3/A8,,A7,
3,A6,,{4}3/A5,{2}4w8[4:1],
{8},,2b/6b-8[8:1],{16}4,1,{8}6-2[8:1],3-5[8:1],,,1,
{16}8,3,{8}7h[8:1],{16}2,6,{8}4h[8:1],6<1[8:1],{4}5v2[8:1],
{8},,8/3,{16}6,2,{8}5-7[8:1],3,4/5-1[8:1],3,
2-5[8:1],3,2/8-6-2[4:1],1,{2}4-8[8:1]*-1[8:1],
{16}6,2,5,1,{8}4b,{16}2,6,{8}1h[8:1],{16}7,3,{8}6h[8:1],{16}4,8,
{8}5h[8:1],1,4/8,{16}7,3,{8}7,{16}1V35v2[4:1],5,{4}1,
{8},,8h[8:1],{16}3,7,{8}4-2[8:1],6,5/4-8[8:1],6,
7-4[8:1],6,7/1-3-7[4:1],8,{2}5-1[8:1]*-8[8:1],
{8},2,{16}4b/3>8[8:1],,,5,,,{8}6,{16}7<4[8:1],,,8,
,,{8}1,{16}2<7[8:1],,,3,,,{8}4,{4}5-2[8:1],
{2}7-5[8:1]*-4[8:1],{4}E3,{8}E2,7,
{4}E1,{16}E8/6pp5[2:1],,,4V25[16:5],,,,,,,,,,,{8}3,
{16}1/2>5[8:1],,,8,,,{8}7,{16}6<1[8:1],,,5,
,,{8}4,{16}3<6[8:1],,,2,,,{8}1,{4}8-3[8:1],
{2}6-8[8:1]*-1[8:1],{4}E3,{8}E4,6,
E5,7,{16}E6/8qq4[8:3],,,3-8[16:3],,,,,,,,,,,{8}1,
4/3b,{16}2,4,{8}3,4,{16}3,4,,4,
{8}3,{16}5,4,{8}6,{16}6,5,{8}7,5,{16}6,5,,5,
{8}E7,{16}4,5,{8}3,{16}3,4,{8}2,4,{16}3,4,,4,
{8}E3,{16}6,5,{8}E8,{16}6,5,{8}E8,{16}6,5,{8}E8,{16}6,5,
7,4,8,3,{8}1,{16}2,1,{8}3,5,{16}3,4,,4,
{8}3,{16}5,4,{8}6,{16}6,5,{8}7,8,{16}1,8,,8,
{8}1,{16}1,8,{8}2,{16}4,3h[16:3],,,{8}C,{16},5,,5,
{8}4,{16}6,5,{4}E8,E7,{8}E6,4,
3/E5,2,{4}1/E4,1/B4,1/B5,
1/E6,{8}2/E4,2,2/B4,2,{4}2/B5,
2/E6,E4/1-5[8:1],B4,B5/1-3[8:1],
E6,E4/4-7[8:1],B3,B2/8-6[8:1],
E2,5/E4,{8}5/B3,5,{4}5/B2,
5/E2,{8}6/E4,6,6/B3,6,{4}6/B2,
{8}E2,7,{4}7h[4:1]/E4,{8}B3,8,{4}8h[4:1]/B2,
E2,2/8-4b[8:1],2,2xh[4:1]/6x<4[4:1],
{8},,8x-3[8:1],5,8,5,4-8[8:1],6,
4,6,{16}7h[8:1],,,7h[8:1]/1h[8:1],,,{8}6h[8:1]/5h[16:1],{16},5h[8:1]/6h[8:1],,,{8}3h[16:1]/4-1[8:1],
4/3h[16:1],{4}4/3,{8}2-5[8:1],8,2,8,
7,4,{16}3h[8:1]/6h[8:1],,,3h[8:1]/6h[8:1],,,{8}2h[8:1]/5h[8:1],{16},2h[8:1]/5h[8:1],,,{8}1h[16:1]/8-4[8:1],
8/1h[16:1],{4}8/1,{8}3-7[8:1],5,3,6,
1,8,{16}2h[8:1]/7h[8:1],,,2h[8:1]/7h[8:1],,,{8}3h[8:1]/4h[8:1],{16},4h[8:1]/3h[8:1],,,{8}6h[16:1]/5-8[8:1],
5/6h[16:1],{4}5/6,{8}7-4[8:1],1,7,1,
2-8[8:1],5,2,5,6-1[8:1],2,6,2,
3,4h[16:1],,,,,{4}E6h[4:9],
,1h[8:1],2h[8:1],1h[8:1],
2h[8:1],1h[8:1],2h[8:1],1-5[8:1],
,E8h[2:3],4h[8:1],3h[8:1],
4h[8:1],3h[8:1],{8}E2,C,{4}E6,
,E4h[4:7]/7b-5[8:1],,7-5[8:1],
,7-5[8:1],,7-5[8:1],
,E2h[1:1]/4-7[8:1],,4-7[8:1],
,4-7[8:1],{2}2-5[8:1]*-4[8:1],
{16},,,,7b,8,6,1,7,8,5,4,{8}1-5[8:1],2-4[8:1],
,,7h[8:1],{16}8,6,{8}1h[8:1],{16}5,2,{8}4h[4:1],3,
{4}2,{8}1-3[8:1],{16}7,7,{8}1-5[8:1],{16}6-8[8:1],6,{4}1V38[4:1],
{8},,4-7-3[4:1],5,{2}3-1[8:1]*-7[8:1],
{8},,7b/3b-1[8:1],{16}5,8,{8}3-7[8:1],6-4[8:1],,,8,
{16}1,6,{8}2h[8:1],{16}7,3,{8}5h[8:1],3>8[8:1],{4}4v7[8:1],
{8},,1/6,{16}3,4,2,1,4,5,{8}1-5[8:1],6,
1-3[8:1],{16}7,7,{8}1-5-8[4:1],{16}6,7,{2}8-5[8:1]*-4[8:1],
{8},3,{16}1b/2<7[8:1],,,3,,,{8}4,{16}5>2[8:1],,,6,
,,{8}7,{16}8<5[8:1],,,1,,,{8}2,{4}3-8[8:1],
{2}5-1[8:1]*-3[8:1],{4}E8,{8}E7,4,
E6,3,{16}E5/2qq5[8:3],,,1qq5[16:3],,,,,,,,,,,{8}4,
{16}6b/5<8[8:1],,,4,,,{8}3,{16}2>5[8:1],,,1,
,,{8}8,{16}7>2[8:1],,,6,,,{8}5,{4}4-7[8:1],
{2}2-5[8:1]*-4[8:1],{4}E6,{8}E7,1,
E8,2,{16}E1/3pp8[8:3],,,4pp8[16:3],,,,,,,,,,,{8}2,
{4}4h[16:3]/3h[8:3],,5h[8:3]/6h[16:3],
,7h[8:3]/8h[16:3],,1,
2,3h[1:1],E1,E7,
E5,C,B7/B8/B1/B2,E7h[4:1]/E3h[16:5]/B6h[8:3]/B3h[16:7]/Ch[2:1],
E
