&title=月に叢雲華に風
&artist=幽閉サテライト
&first=0.011
&des=Rotifin
&lv_5=13+
&inote_5=(160){1},,
{8}2,4,3,5,4h[2:1],,,,
{4}8>5[2:1]*q5[2:1],,,,
{8}7,5,6,4,5h[2:1],,,,
{4}1pp3[8:3]*qq7[8:3],,,,
{1}7pp3[2:1],
{8}2qq6[2:1],4,5,,,,,,
{1}1>8[4:5]/8<1[4:5],
{4},,,2b/7b,
{8}6-4[8:1],6,2-5[8:1],2,8,8h[4:1],,6>3[8:1],
{8},8-4[8:1],8,2-5[8:1],2,6h[4:1],,3-8[8:1],
{8},7-4[8:1],7,3-8[8:1],,7-4[8:1],7,3h[4:1],
{8},1<7[8:1],7<5[8:1],5>3[8:1],,,8h[4:1],,
{8}2-5[8:1],2,6-3[8:1],6,1,1h[4:1],,3<6[8:1],
{8},1-5[8:1],1,7-4[8:1],7,3,3h[4:1],,
{8}4b,1/7,,5b/6b,2/8,,3b/5b,7/8,
{8},4b/6b,1/2,,{16}4,5,4,,{4}2b/7b,
{8}6pp5[2:1],,,,2h[4:1],,,,
{8}6pp5[2:1],,,,3h[4:1],,,,
{8}6pp4[4:3],,,,4,3,2,,
{8}1h[4:3],,,8,8h[4:1],,,,
{8}1pp5[2:1],1,8,7,,,,,
{4}6h[4:1],4h[4:1],2h[4:1],1h[4:1],
{8}8qq4[2:1],8,1,2,,,,,
{1}3>6[2:1]/5p4[2:1],
{16}2h[8:1],,4,3,4,,1,,7h[8:1],,5,6,5,,8,,
{16}2h[8:1],,4,3,5,,1,,7h[8:1],,5,6,4,,8,,
{8}3-6[8:1],3,7-4[8:1],7,1>5[4:1],1,5<1[4:1],,
{4}1pp5[8:3]*qq5[8:3],,,3/7,
{16}6h[8:1],,4,5,3,,2-4[8:1],,2,,1-5[8:1],,1,,3,,
{16}3h[8:1],,5,4,6,,7-5[8:1],,7,,8-4[8:1],,8,,6<4[8:3],,
{8}6b,,,,1p5[8:1]*q5[8:1],,,,
{16}6b,5,6,5,7b,4,7,4,8b,3,1,2,8b,,,,
{8}7-5[8:1],,7/4,3-5[8:1],,3/6,7,8>5[4:1],
{8},3h[4:1],,,3q7[8:1]*-6[8:1],,,,
{8}7-4[8:1],,7/3,2-5[8:1],,2/6,7,8>6[4:1],
{8},3h[4:1],,,3q7[8:1]*q8[8:1],,,,
{8}7-3[8:1],,7/2,1-5[8:1],,1/6,7,8>7[4:1],
{8},3h[4:1],,,3-7[8:1]*-8[8:1],,,,
{16}6h[8:3]/5,,,7,,,1,,3h[8:3]/4,,,2,,,8,,
{4}6pp5[4:1]/4qq5[4:1],,,3/7,
{16}3b,4,2,5,1b,6,8,7,1-5[8:1],,,,1b/8,,,,
{4}4b>1[8:1]/8b<5[8:1],4/8,4-7[8:1]/8-3[8:1],4/8,
{16}8<4[16:3],,,4-8[8:1],{8}8,3,2-6[8:1]*-5[8:1],,2,,
{4}3>8[8:1]/7<4[8:1],3/7,3q7[8:1]/7q3[8:1],3/7,
{16}8pp5[16:5],,,3,{8}8,4,4>1[8:1]*<7[8:1],,4,,
{8}8-3[8:1],3p6[6:1],8,4>1[8:1],,5,6,7<4[8:1],
{8}8,1,2<7[8:1],3,4,5,6h[4:1],7,
{8}8>2[8:1],2>4[8:1],4<6[8:1],,,1h[4:1],,7,
{16}7,6,5,4,3,2,1,8,7/2,3,4,5,6,7,8,1,
{4}2b>5[8:1]/6b<1[8:1],2/6,2p6[8:1]/6p2[8:1],2/6,
{16}1>5[16:3],,,5-1[8:1],{8}1,6,7-4[8:1]*-2[8:1],,7,,
{4}7>2[8:1]/3<6[8:1],3/7,3-7[8:1]/7-4[8:1],3/7,
{16}8z4[16:3],,,2,{8}8,3,3<7[8:1]*>7[8:1],,3,,
{8}1-6[8:1],6q3[6:1],1,5<8[8:1],,4,3,2>5[8:1],
{8}1,8,7>2[8:1],6,5,4,3h[4:1],,
{8}1-5[8:1],1,2-6[8:1],2,3-7[8:1],3,4,4,
{16}8,1,7,2,8,1,7,2,{32}8,7,6,5,4,3,2,1,8,7,6,5,4,3,2,1,
{1}8b<1[2:3]/4h[1:1],
{1},
{1}3qq7[1:1],
{4}6h[8:3],,,6,
{8}3,4,5,6h[8:3],,,,,
{8}2,4,5,7h[8:5],,,,,
{32}6,5,4,3b-7[1:2],{8},,,,,,,
E
