&title=愛撫誘発性攻撃行動 (feat. 可不)
&artist=Coward Dream
&first=0
&lv_5=13.9
&des=Ant1
&inote_5=
(85){4},{64},,,,,,,,,,,Cfh[2:1],{1},{64},,,5,
,,,5>6[16:3],,,,4h[16:5],{4},{16},,{64},,,4,
,,,,,,,4,,,,4,,,,,,,,4,,,,,,,,4,,,,5,,,,5,,,,4,,,,4,,,,3,,,,3,,,,6bv1b[8:1],{4},{16},,{64},,,3bv8b[8:1],
{4},,{64},,,5b,,,,5b,
,,,5b,,,,5b,,,,5b,,,,5b,,,,5b,,,,5b,,,,,,,,5h/4h,,,,,,,,,,,,A8f/B4f/B3f/B2f/E2f/B1f/D3f/A3f/D4f/D5f/D6f/B7f/A5f/D7f/B6f/B8f/Cf/E1f/A1f/D2f/A2f/E3f/E4f/A4f/E5f/E6f/A6f/E7f/A7f/D8f/B5f/D1f,,,,,,,,Cfh[16:1],,,,,,,,5-1[32:7],,,,4,
,,,3,,,,2,,,,1,,,,8,,,,7,,,,6,,,,5s1[32:7],,,,6,,,,7,,,,8,,,,1,,,,2,,,,3,,,,3,,,,4-8[32:7],,,,5,
,,,6,,,,7,,,,8,,,,1,,,,2,,,,3,,,,4s8[4:1],,,,3,,,,2,,,,1,,,,8,,,,7,,,,6,,,,6,,,,5,,,,3,
,,,4,,,,3,,,,5,,,,4,,,,5/1,,,,3,,,,4,,,,3,,,,5,,,,4,,,,3,,,,4,,,,5,,,,6,,,,5,,,,3/4,
,,,5/6,,,,4/3,,,,5/6,,,,4/3,,,,6/5,,,,4/3,,,,,,,,1bx,,2bx,,3bx,,4bx,,5bx,,6bx,,7bx,,8bx,,,,,,B6/B5/B4/B3,,,,8bx,,7x,,6x,,5x,,,,,,,,8xv6b[32:13]/7xv4[32:5],
{4},,,{64},,,1bx,,2x,,3x,,4x,
,,,,,,,1xv3b[32:13]/2xv5[32:5],{4},,,{32},{64}1x/8xh[16:1],2x,3x,4x,{32}5x,
{64},,,8b,7bx,6b,{32}5bx,{64},,,5h/4h,,3/6,,2/7,,8/1,,,,,,,,,,E8,B7,B6,{32}E6,{64},,,E4,B3,B2,{32}E2,{4},{16},,{64},,,5h[4:1],
,,,4h[16:3],{32},,,,,,,{64}A5,E6,E7,A7,,A5,B5,B8,{32}A8,,{64}A5,B5,B1,A1,{16},{64}A5,E5,E3,A2,{16},{64}A5,E5,E4,A3,,,,,,5-1[8:1],,,,5-8[8:1],
,,,5-2[8:1],{4},,,{16},{64},,,5-7[8:1],,,,5-1[8:1],
,,,5-2[8:1],,,,5-8[8:1],{4},,,{64},5-1[8:1],,,,5-8[8:1],,,,5-3[8:1],
,,,5-2[8:1],,,,5-7[8:1],{4},,,{64},5,,,,4,
,,,5,{192},,,,,4,{64},,,5,,4,{192},,,,,5,{64},4,{192},5,{64},{192}4,{64},5,{192},4,{64},{192}5,{64},4,{192},5,{64},{192}4,{64},5,,,,5h[16:1],,,,4h[16:1],,,,3h[16:1],,,,2h[16:1],,,,,,,,,,,,,,,,4-8[32:7],,,,5,
,,,6,,,,7,,,,8,,,,1,,,,2,,,,3,,,,4z8[32:7],,,,3,,,,2,,,,1,,,,8,,,,7,,,,6,,,,6,,,,5-1[32:7],,,,4,
,,,3,,,,2,,,,1,,,,8,,,,7,,,,6,,,,5z1[4:1],,,,6,,,,7,,,,8,,,,1,,,,2,,,,3,,,,3,,,,4,,,,6,
,,,5,,,,6,,,,4,,,,5,,,,4/8,,,,6,,,,5,,,,6,,,,4,,,,5,,,,6,,,,5,,,,4,,,,3,,,,4,,,,7/8,
,,,1/2,,,,8/7,,,,1/2,,,,8/7,,,,2/1,,,,8/7,,,,,,,,8bx,,7bx,,6bx,,5bx,,4bx,,3bx,,2bx,,1bx,,,,,,,,,,,,,,3/6h[8:9],,,,,,,,3,
,,,,,,,3,,,,,,,,3,,,,,,,,3,,,,,,,,B5,,,,,,,,B8,,,,,,,,B1,,,,,,,,B4,,,,,,,,C,
,,,,,,,5/4h[8:9],,,,,,,,5,,,,,,,,5,,,,,,,,5,,,,,,,,5,,,,,,,,5,{32},,,{64}8,7,6,5,,3,
{4},{16},{64},,,8,,,,7,,,,6,,,,5,,,,4,,,,3,,,,2,,,,1,,,,,,,,8b/B8,,,,,,,,2b/B2,
,,,,,,,5b/B5,,,,,,,,4b/B4f,{8},{16}3,4,4,5,5,{32}5,6,7,8,{64},1,,2,,8,,3,
,7,,4,,6,,5,,4,,6,,3,,7,,2,,8,,1,{32},8,7,1,6,2,5,3,4-6-2-8[32:3],5,3,6,2,7,1,{16}8,{64},,,,,,,5,
,,,3,,,,4,,,,6,,,,5,,,,7,,,,5b,,,,,,,,4/5,,,,8/1,,,,7/6,,,,2/3,,,,3/4,,,,5/6,,,,1V35[6:1],{192},,,,,2,,,,,,,,1,,,,,,,,{64}2,
{192},,,,,1,,,,,,,,2,,,,,,,,{64}1,,,,,,,,,,,,,,,,8V64[6:1],{192},,,,,7,,,,,,,,8,,,,,,,,{64}7,{192},,,,,8,,,,,,,,7,,,,,,,,{64}8,{4},{64},{96},{192}5bx,,,,,,,,5b,,,,,,,,{64}5bx,
{192},,,,,5b,,,,,,,,5bx,,,,,,,,{64}5b,{192},,,,,5bx,,,,,,,,5b,,,,,,,,{64}5bx,{192},,,,,5b,,,,,,,,5bx,,,,,,,,{64}5bx,{192},,,,,5bx,{64},,,,,1x,2x,3x,4b,5x,6x,7x,8x,1x,2x,3b,4x,5x,6x,7x,{32},,,{16}D8f/E4f/D5f/E5f/A4f/A5f/D6f/B5f/E6f/B4f/B3f/E3f/B7f/A6f/D7f/D4f/E7f/D3f/B2f/E8f/B1f/A7f/E2f/E1f/A1f/D1f/A8f/B8f/D2f/A2f/B6f/Cf/A3f,{64},,,6-2[32:7],,,,5,
,,,4,,,,3,,,,2,,,,1,,,,8,,,,7,,,,6s2[32:7],,,,7,,,,8,,,,1,,,,2,,,,3,,,,4,,,,4,,,,5-1[32:7],,,,6,
,,,7,,,,8,,,,1,,,,2,,,,3,,,,4,,,,5s1[4:1],,,,4,,,,3,,,,2,,,,1,,,,8,,,,7,,,,7,,,,6,,,,4,
,,,5,,,,4,,,,6,,,,5,,,,6/2,,,,4,,,,5,,,,4,,,,6,,,,5,,,,4,,,,5,,,,6,,,,7,,,,6,,,,4/5,
,,,6/7,,,,5/4,,,,6/7,,,,5/4,,,,7/6,,,,5/4,,,,,,8/1,7/2,6/3,4/5,{16},{64}1x/2x,{32},{8}1x/2b,
E
