&title=万物快楽理論
&artist=あさき
&first=0.38
&des=GLOSSOLALIA
&lv_5=14
&inote_5=(128)
{4},,,,
,,,,
(121){4}
{8}2h[16:5],,3h[16:5],,4h[16:4],,
5h[16:5],,6h[16:4],,
7h[16:4],,8h[16:3],,1h[16:3],,
2h[16:2],,3h[16:2],,{16}5,6,7,8,
1,,,,2`3,,,,3`4,,,,
(120){4}5s1[8:9]`4,,,
(110){4}4s8[120#8:3],,,
(135){16}
7b/2b,,34,,2,6,1,7h[8:1],,5,8,4,1,3,8,2,
7,,65,,7,3,8,2h[8:1],,4,1,5,8,6,1,7,
2,,54,,3,8,4,1h[8:1],,2,5,4,6,3,4,2,
7,,45,,6,1,5,8h[8:1],,7,4,5,3,6,5,7,
1b,4,3h[8:1],,8,5,7,2h[8:1],,4,4,8,7,5,1,4,
8,5,6h[8:1],,1,4,2,7h[8:1],,5,5,1,2,4,8,5,
2b,,7,5,4,5,7,1h[8:1],,4,4,3,8,,75,,
6b/1b,,2,4,5,4,2,8h[8:1],,5,5,6,1,1,8,8,
2b<3[8:10]/7bqq5[8:4],,,,,,,,,,,,,,,,
7qq8[8:5],,,,,,,,,,,,,,,,2,1,3,1,
4b,,3,,4,,3,3,,4,4,,3,,4,,
3,,4,,3,,4<7[8:2],4,,3,3,,4,,3,,
2,,1,2,8,,7/1h[8:1],,6,5,2,3,7,6,3,4,
8,7,4,5,1,8h[16:3],2,,2h[8:1],,3h[8:1],,1,4,8,5,
7b-4[8:1],,1,,3-5[8:1],,2,2,,1,1-6[8:1],,7,,8,,
1,2,3,4,2,3,4,5,8,1,2,3,4,5,6,7,
8,,71,,62,,3,3,,2,2,,14,,85,,
7,,86,,15,,2,23,,5,5b/4b,4,7,3,6,2,
8bqq6[8:1],,7,,4-1[8:1],,3,,7-5[8:1],,6,,8p3[8:1],,1,,
2v1[8:1],,1,,5V74[8:2],,4,,8h[8:1],,,,1,2,3,4,
5b/6b,,1b/2b,,3b/4b,,7b/8b,,{24}1,6,1,5,2,5,{16}3b,2b/4b,
,,,,,,6h[8:1],,5h[8:1],,7,4,6,3h[8:1],,4,
2,5,1,6,2,5,3h[8:1],,4h[8:1],,2,5,3,6h[8:1],,5,7,4,1h,2h,4h,3h,8h,1h,7h[8:1],,5,6,4,8h[8:1],,1,4,2,5,4,6,5,7h[8:1],,4h[8:1],,1,2,1,8b/3b,,,,,,,,,
5b/2bV46[8:2],,,,7,,8,,1V37[8:2],,8,,7bV14[8:2],,6,,
5,,6,,7,5,8,6V42[8:2],,1,1,,8,,7,,
6,6h[8:1],,4,4h[8:1],,2,2h[8:1],,8,8h[16:1],,15,,73,,6/5b,6/7b,,3/4b,3/2b,,7/5b,7/8b,,2/4b,2/1b,,6b/3b,,6b/3b,,
1qq2[8:2]/8,,2,,3,,4>5[8:3],4,,5,5,,4,,3,,
2,1,8,7,4,,6,5,7,8,1,2,4,,62,,
5,1h[8:1],,3,1h[8:1],,7,1h[8:1],,2,1,2,1,,83,,7,5h[8:1],,3,5h[8:1],,1,5h[8:1],,
8,6,8,5,1,5,2,4b,,4,,54,,{24}4,,5,{24}4,,5,4,,,
45,,,4,,,{16}4,7,4,1,4,,{24}4,,5,{16}4,
,4,,4,8,4,2,4,,4,1,4,,48,,4>6[8:2],,6`4,,
2b,,,,2,3,4,5,6,5,6,5,4,3,4,3,
8b,,7-5[8:1]/1,,2,,7-3[8:1]/3,,4,,5/7-5[8:1],,
6,,7-3[8:1],,8,,7-5[8:1]/1,,2,,7-3[8:1]/3,,4,,7-5[8:1]/5,,
6,,7,,8,,14,,63,,85,,7b/8b,,4b/3b,,
{24}6,,6,5,,5,4,,4,3,,3,1,,1,2,8,1,7,8,6,1b,,,
(128){16}2b/4b,,34,7b/5b,,65,1b/4b,,32,8b/5b,,,
(120){12}78,78,78,
(114){8}61,85,74,
(135){16}
6b/5b^2[8:1],,7,,8,8qq8[8:2],,7q4[8:1]/1,,,,,,,1,2,
3,5,6,7,8,15,,6/2pp1[8:2],,,4p7[8:1],,6,,,,
8bs4[8:2],,,,7,,6,,5,,{24}6,7,8,1h[8:1],,,6,85,74,
{16}6b/3b,,1qq2[8:2],2q3[16:3],,,1b/2b,,,,,,{24}4,5,4,6-1[8:1],5,6,
{16}3,,1b,,2,4,3,7b-4[8:1]/1b,,,8,,1,,2,,
3,3,4,4,5b,4,3,2,16,8,7,6,58,,{24}1,2,1,
{16}3,3,5,5,
(130){8}7bpp3[8:6]*p4[8:6],,,,,,,,,{16}3,4,,7b,5,,
(135){24}7,8,6,1,5,2,
{16}4b>6[8:2],,,,1,,,,2-6[8:1],,2,,4pp8[8:3],,4,,
1h[8:3],,,,,,,,2,,3b/4b,,6,5,6,5,
7b-4[8:1]/3b,,8,,7/1-5[8:1],,2,2,8-3[8:1]/1,,7,7,83,,1b,,
2b/6b,,65,7,4,5,1,4,2bz6[8:2]/3bs7[8:2],,,,,,,,
,,,,71,2,3,4,5h[8:6],,,,4,,,,4,3,2,1,8,7,6,5,4h[8:4],,,,5,6,7h[8:2],,,,,,86,51,4h[8:6]/2,,3,2,1,8,7,6,5,,5,6,7,8,15,26,73,84,1-5[8:1]/5-1[8:1],,,,1,,,,
{12}8b,8,8,8h[8:4],,,{16}4b,4,4,4,4h[8:2],,,,3bp6[8:1],,,,3v8[8:1]/1,,,,5b<5[8:6]*>5[8:6]/3b,,,,,,,,,,,,,,,,,,,,5v4[8:1],,,,5b-8[8:1],,8b,,2b,,
&inote_6=(128)
{4},,,,
,,,,
(121){4}
{8}2hx[16:5],,3h[16:5],,4hx[16:4],,
5h[16:5],,6hx[16:4],,
7h[16:4],,8hx[16:3],,1h[16:3],,
2hx[16:2],,3h[16:2],,{16}5,6,7,8,
1,,,,2x`3,,,,3x`4,,,,
(120){4}5s1[8:9]`4x,,,
(110){4}4xs8[120#8:3],,,
(135){16}
7b/2bx,,3x/4,,2,6,1,7h[8:1],,5,8,4,1,3,8,2,
7,,65,,7,3,8,2h[8:1],,4,1,5,8,6,1,7,
2,,54,,3,8,4,1h[8:1],,2,5,4,6,3,4,2,
7,,45,,6,1,5,8h[8:1],,7,4,5,3,6,5,7,
1b,4,3h[8:1],,8,5,7,2h[8:1],,4,4,8,7,5,1,4,
8,5,6h[8:1],,1,4,2,7h[8:1],,5,5,1,2,4,8,5,
2b,,7,5,4,5,7,1h[8:1],,4,4,3,8,,75,,
6b/1b,,2,4,5,4,2,8h[8:1],,5,5,6,1,1,8,8,
2b<3[8:10]/7bqq5[8:4],,,,,,,,,,,,,,,,
7qq8[8:5],,,,,,,,,,,,,,,,2,1,3,1,
4b,,3,,4,,3,3,,4,4,,3,,4,,
3,,4,,3,,4<7[8:2],4,,3,3,,4,,3,,
2,,1,2,8,,7/1h[8:1],,6,5,2,3,7,6,3,4,
8,7,4,5,1,8h[16:3],2,,2h[8:1],,3h[8:1],,1,4,8,5,
7b-4[8:1],,1,,3-5[8:1],,2,2,,1,1-6[8:1],,7,,8,,
1,2,3,4,2,3,4,5,8,1,2,3,4,5,6,7,
8,,71,,62,,3,3,,2,2,,14,,85,,
7,,86,,15,,2,23,,5,5b/4b,4,7,3,6,2,
8bqq6[8:1],,7,,4-1[8:1],,3,,7-5[8:1],,6,,8p3[8:1],,1,,
2v1[8:1],,1,,5V74[8:2],,4,,8h[8:1],,,,1,2,3,4,
5b/6b,,1b/2b,,3b/4b,,7b/8b,,{24}1,6,1,5,2,5,{16}3b,2b/4b,
,,,,,,6h[8:1],,5h[8:1],,7,4,6,3h[8:1],,4,
2,5,1,6,2,5,3h[8:1],,4h[8:1],,2,5,3,6h[8:1],,5,7,4,1h,2h,4h,3h,8h,1h,7h[8:1],,5,6,4,8h[8:1],,1,4,2,5,4,6,5,7h[8:1],,4h[8:1],,1,2,1,8b/3b,,,,,,,,,
5b/2bV46[8:2],,,,7,,8,,1V37[8:2],,8,,7bV14[8:2],,6,,
5,,6,,7,5,8,6V42[8:2],,1,1,,8,,7,,
6,6h[8:1],,4,4h[8:1],,2,2h[8:1],,8,8h[16:1],,15,,73,,6/5b,6/7b,,3/4b,3/2b,,7/5b,7/8b,,2/4b,2/1b,,6b/3b,,6b/3b,,
1qq2[8:2]/8,,2,,3,,4>5[8:3],4,,5,5,,4,,3,,
2,1,8,7,4,,6,5,7,8,1,2,4,,62,,
5,1h[8:1],,3,1h[8:1],,7,1h[8:1],,2,1,2,1,,83,,7,5h[8:1],,3,5h[8:1],,1,5h[8:1],,
8,6,8,5,1,5,2,4b,,4,,54,,{24}4,,5,{24}4,,5,4,,,
45,,,4,,,{16}4,7,4,1,4,,{24}4,,5,{16}4,
,4,,4,8,4,2,4,,4,1,4,,48,,4>6[8:2],,6`4,,
2b,,,,2,3,4,5,6,5,6,5,4,3,4,3,
8b,,7-5[8:1]/1,,2,,7-3[8:1]/3,,4,,5/7-5[8:1],,
6,,7-3[8:1],,8,,7-5[8:1]/1,,2,,7-3[8:1]/3,,4,,7-5[8:1]/5,,
6,,7,,8,,14,,63,,85,,7b/8b,,4b/3b,,
{24}6,,6,5,,5,4,,4,3,,3,1,,1,2,8,1,7,8,6,1b,,,
(128){16}2b/4b,,34,7b/5b,,65,1b/4b,,32,8b/5b,,,
(120){12}78,78,78,
(114){8}61,85,74,
(135){16}
6b/5b^2[8:1],,7,,8,8qq8[8:2],,7q4[8:1]/1,,,,,,,1,2,
3,5,6,7,8,15,,6/2pp1[8:2],,,4p7[8:1],,6,,,,
8bs4[8:2],,,,7,,6,,5,,{24}6,7,8,1h[8:1],,,6,85,74,
{16}6b/3b,,1qq2[8:2],2q3[16:3],,,1b/2b,,,,,,{24}4,5,4,6-1[8:1],5,6,
{16}3,,1b,,2,4,3,7b-4[8:1]/1b,,,8,,1,,2,,
3,3,4,4,5b,4,3,2,16,8,7,6,58,,{24}1,2,1,
{16}3,3,5,5,
(130){8}7bpp3[8:6]*p4[8:6],,,,,,,,,{16}3,4,,7b,5,,
(135){24}7,8,6,1,5,2,
{16}4b>6[8:2],,,,1,,,,2-6[8:1],,2,,4pp8[8:3],,4,,
1h[8:3],,,,,,,,2,,3b/4b,,6,5,6,5,
7b-4[8:1]/3b,,8,,7/1-5[8:1],,2,2,8-3[8:1]/1,,7,7,83,,1b,,
2b/6b,,65,7,4,5,1,4,2bz6[8:2]/3bs7[8:2],,,,,,,,
,,,,71,2,3,4,5h[8:6],,,,4,,,,4,3,2,1,8,7,6,5,4h[8:4],,,,5,6,7h[8:2],,,,,,86,51,4h[8:6]/2,,3,2,1,8,7,6,5,,5,6,7,8,15,26,73,84,1-5[8:1]/5-1[8:1],,,,1,,,,
{12}8b,8,8,8h[8:4],,,{16}4b,4,4,4,4h[8:2],,,,3bp6[8:1],,,,3v8[8:1]/1,,,,5b<5[8:6]*>5[8:6]/3b,,,,,,,,,,,,,,,,,,,,5v4[8:1],,,,5b-8[8:1],,8b,,2b,,
