&title=Cross Soul
&artist=HyuN feat. Syepias
&first=0
&des=naga
&lv_5=14
&inote_5=(200)
{1}
,,,6v4[1:8]/2v8[1:8],,,,,,,,,
{8}
7-5[8:1],,1-3[8:1],1,,6,5h[8:1],,
3h[8:3],,,1h[8:3],,,2h[8:3],,,6h[2:1],,,2-4[8:1],,2,,
5h[8:3],,,3h[8:3],,,6h[8:3],,,8h[2:1],,,7-5[8:1],,7,,
24,,,1-5[8:1],,,6,,,4s8[8:3]/5z1[8:3],,,,,,,
4h[8:3],,,6h[8:3],,,4h[8:3],,,8z4[2:1],,,3h[8:1],,2h[8:1],,
3h[8:3],,,5h[8:3],,,6h[8:3],,,7h[8:3],,,8-2[8:1],,8,,
5h[8:3],,,3h[8:3],,,2h[8:3],,,1h[8:3],,,7-4[8:1],,7,,
{16}
3b/6b,,,,3,,4,,3,,6,5,7,4,6,,
3,4,3,,6,4,6,,
4,5,3,6,2,7,1,8,
1b,,,2,1,3,4,2,5,3,6,4,7,5,7,,
7,8,7,,2,1,2,,
{8}
8h[8:1],1h[8:1],2h[8:1],3h[8:1],
{4}
4<1[2:3]*<1[2:3],8,1,2,3,4,3,2,
1-4[2:3]*-4[2:3],8,7,6,5,5,5,5,
6<6[2:3]*<6[2:3],5,4,3,3,2,2,3,
4z8[2:3]*z8[2:3],5,5,6,6,7,7,6,
1s5[2:3]*s5[2:3],1,2,2,3,3,4,4,
8z4[2:3]*z4[2:3],8,7,7,6,6,5,5,
1<1[2:3]*<1[2:3],1,2,2,3,3,4,4,
8,7,6,{8}45,{16}
3,5,4,,46,,1,2,3,5,6,7,2,3,4,6,7,8,
{4}
1/2b,,
1q8[2:3]*q8[2:3],,2,3-7[8:1],3,,1-6[8:1],,7h[2:1],,8h[2:1],,6,71,
1-4[2:3]*-4[2:3],,6-1[8:1],,8,8,1-5[8:1],,8,,8-4[8:1],,7-3[8:1],,6-2[8:1],,
5,,4>1[8:1],,8,7-3[8:1],6h[4:1],,5h[4:1],,4h[4:1],,2/3h[4:1],,1/2h[4:1],,
{8}
12,3,4,56,7,8,81,28,27,26,53,54,63,27,37,46,
{16}
5,4,5,3,6,4,2,6,3,4,2,5,1,6,7,8,
2b/6,,,1b/5,,,
{32}
5b,6,7,8,5b,4,3,2,
{8}
,1b,,
{4}
6-3[4:1],3-7[4:1],7-2[8:1],2-8[8:1],8-4[8:1],4-6[8:1],3,,
3-6[4:1],6-2[4:1],2-7[8:1],7-1[8:1],1-5[8:1],5-3[8:1],6h[4:1],,
{8}
34,2,1,78,6,5,46,3,2,15,6,7,84,83,82,81,23,45,76,81,63,5,4,46,
{16}
7b,2,5,1,6,8,6b,2,7b,2,8,3,1b,,,,
{4}
8-3[4:1],3-5[4:1],5-2[8:1],2-8[8:1],8-5[8:1],5-3[8:1],3,,
3-8[4:1],8-4[4:1],4-7[8:1],7-5[8:1],5-1[8:1],1-3[8:1],8h[4:1],,
{8}
3/5-1[8:1],3,3,3,3/2-6[8:1],3,3,3,3/7-4[8:1],3,3,3,3/5<8[8:1],3,3,3,
{16}
4,3,4,3,5,2,5,2,6,1,6,1,7,8,8,8-5[8:1],8,,,6,,,1/2,,7/8,,5/6,,3,4,2,5,
{1}3bpp8[2:3],,
{16}
4b/5b,,,,
4,5,3,6,2,7,3,5,3,6,4,6,
3,5,4,6,3-7[8:1],6,4,5,3b,,,,
8,7,6,5,4/3b-8[8:1],,,,3,,7,,
6,4,5,4,5,3,6,6-8[8:1],3b,,,,
4,,3,,
8,3,7,,2,5,3,,
5,4,5,4,6-1[8:1],3,6
,3h[8:1],6,,,,
28,37,46,,5,4,5,2,5s1[8:3],4,6,3,5,,3,,3,,3,,
{1}
3>7[8:5]/7<3[8:5],
3<7[8:5]/7>3[8:5],
{4}
4b,
{16}
5,4,6,3,7,2,6,4,6,3,5,3,
6,4,7,3,8-5[8:1],2,7,1,8b,,,,
1,2,3,4,5/6b-1[8:1],,,,6,,2,,
3,5,4,5,3,4,3,4,2,5,3,6,2-6[8:1],7,2,7h[16:5],,,,,,
4h[8:1],,,5,,,,36,,,,
{12}
2,5,5,3,6,6,
{16}
3,4,3,4,2,5,2,5,3,5,3,6,4,6,3,,
{1}
1>5[8:5]/5<1[8:5],
1<5[8:5]/5>1[8:5],
{16}
1,2,3,4,8,7,6,5,
2,3,4,5,7,6,5,4,
1,8,7,6,8,7,6,5,
2,3,4,5,61,7,8,
16,7,8,1,2,3,48,
1,2,3,48,7,6,5,41,
2,3,
{32}
4b,5,6,7,8,1,2,3,
{16}
48,,73,,26,,15,,
{4}
1-5[8:1]/5,1b/7,74,73,7-3[8:1]/2,7b/1,2,24,25,
{8}
64,65,63,63,62,72,62,35,
{16}
5,3,4,2,5,3,4,2,
{24}
6b,5,4,2,3,4,7,6,5,1,2,3,
{16}
7b,6,5,4,3,8,1,2,3,1,8,7,61,2,3,4,5,16,2,3,4,5,68,7,6,5,4,3,2,1,
8,7,6,51,2,3,41,5,6,7,84,1,2,3,4,51,6,7,
{24}
8b,7,6,5,1,2,3,4,8,7,6,5,1,2,3,4,8,7,
{8}6,,
64,65,63,63,62,72,62,35,
36,36,47,48,73,72,62,15,
{16}
1,8,2,7,1,8,3,6,2,7,4,5,3,6,2,7,
{40}
1,2,3,4,5h[8:1],,,,,,7,6,5,4,3h[8:1],,,,1,8,7,6,5,,,,,,,,
7,6,5-1[8:1],4,3,2,1,8,7,6,5bv7[1:3]/1bv3[1:3],
