&title=LEVEL5-Judgelight-
&artist=fripSide
&first=0
&des=NullZone
&lv_5=13
&inote_5=(139.5)
{1},{384},
{16}
6,5,6h[16
:
3],,,5h[16
:
3],,,4h[16
:
3],,,3,,,5/2,,
3,4,3h[16
:
3],,,4h[16
:
3],,,5h[16
:
3],,,6,,,7/4,,
6,5,7h[16
:
3],,,8h[16
:
3],,,1h[16
:
3],,,2,,,8/3,,
2,1,2h[16
:
3],,,1h[16
:
3],,,8h[16
:
3],,,7,,,6/8,,
4,5,3h[16
:
3],,,2h[16
:
3],,,4h[16
:
3],,,1h[16
:
3],,,3,,
5,4,6h[16
:
3],,,7h[16
:
3],,,5h[16
:
3],,,8h[16
:
3],,,6,,
2,1,3h[16
:
3],,,5h[16
:
3],,,4h[16
:
3],,,6h[16
:
3],,,3,,
7,8,6h[16
:
3],,,4h[16
:
3],,,5h[16
:
3],,,3h[16
:
3],,,6,,
2,4,3>8[16
:
3],,,8q4[16
:
3],,,5,,,6,,,7,,
7,5,6<1[16
:
3],,,1p5[16
:
3],,,4,,,3,,,2,,
2,4,3V17[16
:
3],,,7q3[16
:
3],,,5,,,6,,,7,,
7,5,6V82[16
:
3],,,2p6[16
:
3],,,4,,,3,,,2,,
5/1-5[8
:
1],,,,5/1,,,,6-2[8
:
1]/2,,,,6/2,,,,
7/3-7[8
:
1],,,,7/3,,,,8-4[8
:
1]/4,,,,8/4,,,,
{16}
6/5,,6/5,,7/4,,7/4,,8/3,,8/3,,1/2,,1/2,,
3,4,2,5,1,6,8,7,
1-3[8
:
1],,5-7[8
:
1],,1-5[8
:
1],,5,,1b,,,,
8/2,,4/3,,6/1,,7,8>3[8
:
1],,,5,,5,,6,,6,,7h[8
:
1],,8,7,,4,5,,
3V15[16
:
3],,3,,7,7,,,8V26[16
:
3],,8,,5,5,,,4V27[16
:
3],,4,,
6,6,,,,,1>4[8
:
1],,5<8[8
:
1],,1-5[8
:
1],,5,,1b,,,,
6/4,,7/3,,8/2,,1,1,,,8-3[8
:
1],,4,,8-5[8
:
1],,4,,8,,4,,
7/3,7/3,,,2,8,1<6[8
:
1],,,,1/3b,,,,5/2,,7/8,,6/3,,1/2,,
8s4[174.375#8
:
5]/4s8[174.375#8
:
5],,8/4,8b/4b,,,,
,,,,
,,,,,
2,1,,3,5,,6/4,,7,8,,6,4,,5/3,,
2>5[174.375#32
:
5],,,2,,,7h[4
:
1],,,,6p2[8
:
1],,6,,8,,8<5[16
:
3],,,
5-1[16
:
3],,,1-6[16
:
3]
*
-4[16
:
3],,,,
,,,,
,,
7<4[174.375#32
:
5],,,7,,,2h[4
:
1],,,,3q7[8
:
1],,3,,1,,1>6[16
:
3],,,
6p1[16
:
3],,,8,,8w4[8
:
1],,,,8,,,,
7-4[8
:
1]/2,,,,7/2-5[8
:
1],,,,8-4[8
:
1]/2,,,,8/3,,2,,1-6[8
:
1],,,,
1-4[8
:
1]/2,,,,8/1,,8,,7,,7,,6-1[8
:
1]/5-2[8
:
1],,,,
,,,,
4-7[8
:
1]/3-8[8
:
1],,,,
,,,,5h[16
:
3],,,1,,,7/3,,6b,6,5,5,4,4,3,3,
6-2[8
:
1],,,5,6,,5,,6-1[8
:
1],,,5,6,,5,,6V84[4
:
1],,,
5,6,,2,,1v6[8
:
1],,,,1/2b,,,,
3-7[8
:
1],,,4,3,,4,,3-8[8
:
1],,,4,3,,4,,3V15[4
:
1],,,4,3,,7,,
8v3[8
:
1],,,,7b/8,,,,
5s1[16
:
3],,,1<3[16
:
5],,,2,,2h[4
:
1],,,,
,,,,
7-4[8
:
1],,,8,7,,1,,2-5[8
:
1],,,1,2,,8,,
6h[16
:
3],,,5,6,,8/4,,3h[16
:
3],,,4,3,,5/1,,7b,5,6,2b,4,3,7b,5,
6>3[8
:
1],,4>1[8
:
1],,2<7[8
:
1],,8<5[8
:
1],,6b,,,,
3,,3,,4/2v5[186#6
:
1],,8,2,,,7,,7/8,,1/2,,4/3,,6/5,,7-4[8
:
1],8,,8,7,,
1V73[16
:
3],,1,,5,5,,,6V48[16
:
3],,6,,2,2,,,3V15[16
:
3],,3,,7,7,,,,,
8<6[8
:
1]/2,,1,,8/2v5[8
:
1],,1,,8b/2,,,,6h[8
:
1],,7h[8
:
1],,8,,8/1,8/1,,,
2-5[8
:
1],,5>2[8
:
1],,2<7[8
:
1],,7-2[8
:
1],,6,,6,,5,5,,,
3,7,8v5[8
:
1]/2v5[8
:
1],,,,8/2,,,,7/3,,7/3,,6/2,,6/2,,
5-8[186#6
:
1]/1-4[186#6
:
1],,5/1,5/1,,,,,
3<6[8
:
1],,5<8[8
:
1],,7>2[8
:
1],,1>4[8
:
1],,3b,,,,
6,,6,,7v4[186#6
:
1]/5,,1,7,,,2,,1/2,,4/3,,6/5,,7/8,,2-5[8
:
1],1,,1,2,,
8V26[16
:
3],,8,,4,4,,,3V51[16
:
3],,3,,7,7,,,6V84[16
:
3],,6,,2,2,,,,,
7/1>3[8
:
1],,8,,7v4[8
:
1]/1,,8,,7/1b,,,,3h[8
:
1],,2h[8
:
1],,1,,8/1,8/1,,,
7-4[8
:
1],,4<7[8
:
1],,7>2[8
:
1],,2-7[8
:
1],,3,,3,,4,4,,,
6,2,7v4[8
:
1]/1v4[8
:
1],,,,7/1,,,,6/2,,6/2,,7/3,,7/3,,
8qq5[186#8
:
5]/4qq1[186#8
:
5],,8/4,8b/4b,,,,
,,,,
,,,
7/2,6/3,5-8[8
:
1]/4-1[8
:
1],,,,5b/4b,,,,
2h[8
:
1],,4h[8
:
1],,5h[8
:
1],,7,,6pp4[186#2
:
1]/3qq5[186#2
:
1],,
6/3,6b/3b,,,,
,,,,
,
{24}
2,3,4,5,6,7,
{16}
8/1>4[8
:
1],,,,1,,7,6,5-1[8
:
1],,,3,,,3,,8h[16
:
1]/2h[16
:
1],,
6h[16
:
1]/4h[16
:
1],,7h[16
:
1]/1h[16
:
1],,5h[16
:
1]/3h[16
:
1],,
2-6[8
:
1],8,,8,2,,7,,4,5,,3,4,,2/3,,5,4,,6,5,,7/6,,
3,4,3,4,1,8,1,8,5-1[8
:
1],6,5,6,5,,,,
7-4[8
:
1],,8,,1,,2-7[8
:
1],,3,,4,,5,,6,,3,3,4,4,5,5,6,6,
4b-8[8
:
1],,,5b,,,6b,,7q4[8
:
1]/1bv4[8
:
1],,,,,,,,8bv5[8
:
1]/2p5[8
:
1],,,,,,,,
7bpp4[8
:
3]/1bqq4[8
:
3],,,,
,,,,
,,,,
,,,,
5/3,,6/2,,7<4[8
:
1]/1,,8,1,7,,,2h[16
:
3],,,1,,
3,4,2,5,1,6,8,7,1-4[8
:
1],6,,6,1,,5,,
2,6,3,7,4,8,5,1,4,8,3,7,2,6,1,5,8h[8
:
1],,
{32}
5,6,7,8,1,2,3,4,5,6,7,8,
{16}
1bw5[8
:
1],,,,1b,,,,
2b>5[8
:
1],,1/3,,2,,7b-3[8
:
1],,6/8,,7,,1b,,1,,
5,5,4,4,3,3,2,2,1h[8
:
1],,,6h[8
:
1]/8h[8
:
1],,,
5/3,,5bq1[8
:
1]/3bp7[8
:
1],,,,
,,,,6bq2[8
:
1]/4bp8[8
:
1],,,,
,,,,
5b<4[2
:
1]/3b>4[2
:
1],,,,
,,,,
,,,,
,,,,
6h[8
:
1]/4h[8
:
1],,,5h[8
:
1]/3h[8
:
1],,,4/2,,
5h[8
:
1]/3h[8
:
1],,,6h[8
:
1]/4h[8
:
1],,,7/5,,
1,1,5,5,3,3,7,7,
{32}
1,2,3,4,5,6,7,8,
1,2,3,4,5,6,7,8,
{1}
1bw5[1
:
3],,,,
E
