&title=NO, Thank You!
&artist=Hokago Tea Time
&first=0.555
&des=SetDesigner
&lv_5=14.0
&inote_5=(181)
{4},,,1-6[8:2],6-2-5[8:4],E8,,1p5[8:2],5p1[8:2],C,,3h[16:1]/6h[16:1],,,,4h[16:1]/5h[16:1],
{4}3,2,1,1q5[8:2],5q1[8:2],C,,
(124)
{8}7<3[8:4],,,,,,
(175.1)
{4}2xh[8:6],,,,
(181)
{4}8b-2-7-3-6-4[8:5]b,,,,
{8}3x-7[8:1]/6x-4[8:1],36,,,1-4[8:1]/5-1[8:1],15,,,7-3[8:1]/2-5[8:1],27,,,4-8[8:1]/6-1[8:1],46,,,1-5[8:1]/6-8[8:1],16,,,1-5[8:1]/4-2[8:1],14,,,2-6[8:1],3,2-8[8:1]/7-5[8:1],8,2/7w3[8:1],,,,
{8}2x-7[8:1],7-3[8:1],,,1-4[8:1],4-8[8:1],,,6-1[8:1],3-7[8:1],,,8-4[8:1],2-5[8:1],,,6<8[8:1],1q5[8:1],,,3<5[8:1],6q2[8:1],,,5,5,1-5[8:1],5,1bw5[8:1]b,,Cf,,
{16}28,,3,,3/5h[16:3],,,4,5V31[8:1],,6,,75,,,,
{16}78,,6,,3/5h[16:3],,,2,1>5[8:1],,8,,17,,,,
{16}78,,6,,4/5h[16:3],,,3,4V68[8:1],,2,,14,,,,
{16}21,,3,,5/4h[16:3],,,6,8b,,17,,2b,,17,,
{16}18,,7,,6/4h[16:3],,,5,4V68[8:1],,3,,24,,,,
{16}21,,3,,5/4h[16:3],,,6,7<4[8:1],,8,,17,,,,
{16}21,,3,,5/4h[16:3],,,6,5V31[8:1],,7,,85,,,,
{16}78,,6,,4/5h[16:3],,,3,1b,,82,,7b,,61,,
{16}28,,3,,35,,4,4,5-2[8:1],,6,,7,,8,,
{16}18,,7,,46,,3,3,1>5[8:1],,8,,7,,6,,
{16}78,,6,,45,,3,3,4-7[8:1],,2,,1,,8,,
{16}21,,3,,54,,6,6,8b,,17,,2b,,17,,
{16}18,,7,,64,,5,5,4-7[8:1],,3,,2,,1,,
{16}81,,2,,53,,6,6,7<4[8:1],,8,,1,,2,,
{16}21,,3,,54,,6,6,5-2[8:1],,7,,8,,1,,
{16}7/8,,67,,56,,45,,{24}4/3x,2x,1x,8x,7x,6x,
{8}5x/1b,,
{8}5w1[8:1],,5b,,6w2[8:1],,6b,,7w3[8:1],,7b,,8h[16:2],,1h[16:2]/7h[16:2],,6<1>4[8:5]b/2h[8:2],,,5,5h[8:3],,,,5,6,75,8,1/2-6[8:1],,2b/4,,
{8}7z3[8:1]/7-4[8:1],,7b,,8-5[8:1]/2p5[8:1],,2b/8b,,4<7[8:1]*>1[8:1],,4b,,8-4[8:1],,8-3[8:1]*-5[8:1]b,,8bV24[8:4],,7,7,6,6,5,5,{16}4,3,2,1,8,7,6,5,{8}4/8b,,2b/6b,,
{8}5-2[8:1]*-8[8:1],,5b,,1>5[8:1]*<5[8:1],,1b,,3>8[8:1]/7,,3b/7b,5,5-7[8:1]*-8[8:1],,5bp1[8:1],,7b/5>6[8:5]b,,8x,{24}8x,7x,6x,5xh[8:2],,,{8},,,E7/E8f,B4,E3/E2f,E1,C,E5,A2f/E3/D3/B2/B3/A3/8b,,
{4}1b-5[8:8]b,8b,2b,7b,3b,6b,4b,5bh[8:2],
{16}4,,4,,3,5,3,5,2,6,2,6,{24}1,7,1,7,1,7,{16}8b,,,,{48}8bx,1x/7x,2x/6x,3x/5x,4x,,,,,,,,
{8},,,,
{32}8b/2,3,4,5,{8}6,1,8,{32}28,3,4,5,{8}6,1,8,{8}7b/5>1[8:1],,56,8-4[8:1],,8/5-1[8:1]b,,
5b<1[8:3],,,1q5[8:2],,5bq1[8:2],,1>5[8:2],,5b,,
{8}6-2[8:1],,7-3[8:1]/6,,8-4[8:1]/7,,1>4[8:1]*<6[8:1],1,,5w1[8:1],5,,,37,7<4[8:1]/3,,37,1-5[8:1],,14,,{16}3b/7b,,37,,6,6,5,,4,4,5,,6,6,5,4,3,2,
{8}8/1-3[8:1]*-4[8:1],,1b-7[8:1]*-6[8:1],,1bw5[8:1],,1b/Cf,,
{32}1b/7,6,5,4,{8}3,8,1,{32}71,6,5,4,{8}3,8,1,{8}2b/4V68[8:1],,43,1-5[8:1],,1/4>6[8:8],
{8},4,5,,3,3b,,2b,,1b-4[8:2]*qq3[8:2],,,,,5>2[8:2],,2<7[8:2],,7p1[8:4],,,8,8h[16:2],,{16}8,7,6,5,{8}48,8b/4b,,,,{16}45,36,2-5[8:1]/7-4[8:1],,,,
{8}2b/7b>2[8:1],,37,4,4V28[8:1]/8,,74,6,6<7-1[8:1]/3,,63,4,5>1[8:1]/8,,58,7,6q2[8:1]/2,,26,3,3v5[8:1]/7,,3/6q3[8:1],7,63,,2,8,{32}1b,2,3,4,,,,,1b,8/2,7/3,6/4,5,
E
