&title=[プロセカ]キテイ
&artist=ツミキ / 東雲 絵名、鏡音レン、宵崎 奏、 朝比奈 まふゆ、暁山 瑞希 / 25時、ナイトコードで。 「プロジェクトセカイ カラフルステージ! feat. 初音ミク」
&first=0
&des=えななん
&lv_5=13
&inote_5=(145){1},
{16},,,,,,,,,,,,,,,,
{16}3-5[8:1]/7,,,,6,,,,5/4h[4:1],,,,3,,,,
{16}2-5[8:1]/1,,,,8,,,,4h[4:1]/6,,,,2,,,,
{16}1/8^5[4:1],,,,5-1[4:1],,,,2,,,,4qq1[2:1],,,,
{16}8,,,,,,,,7,,,,62,,,,
{16}4-2[8:1]/7,,,,1,,,,3/8-6[8:1],,,,5,,,,
{16}1-3[8:1]/6,,,,4,,,,5-7[8:1]/2,,,,8,,,,
{16}1p4[8:1]/8,81,,,,,,,5p8[8:1]/4,45,,,,,,,
{16}12,,7,8,7,,16,,2,4,2,4,1,7,1,8,
{16}27,,3,4,,3,,3,4,,4,5,,5,7,,
{16}72,,6,5,,6,,6,5,,5,4,,4,2,,
{16}27,,3,4,,3,,3,4,,4,5,,5,7,,
{16}18,,6,5,,6,,7,5,5,,2,4,4,,,
{16}36,,2,1,,2,,2,1,,1,8,,8,6,5,
{16}6,,7,8,,7,,7,8,,8,1,,1,3,4,
{16}3,,2,1,,2,,2,1,,1,8,,8,6,5,
{16}6,,7,8,,7,,6,8,8,,3,1,1,,,
{16}4q5[1:1]/5,,,,6,,,,6,,,,6,,,,
{16}6,,,,7,,,,8,,,,18,,2,3,
{16}4h[4:1],,5,6,7h[4:1],,3,4,5h[4:1],,6,7,8q3[2:1]*p5[2:1],,,,
{16},,,,,,,,,,,,46,,,,
{16}5-8[8:1]/3,,,,8,,,,4-1[8:1],,,,1,,,,
{16}2^7[8:1]/6^3[8:1],,,,,,,,,,65,,7,8,,16,
{16},,25,,2,1,,38,,38,,,17,17,,,
{16}1b/3b,,6b/8b,,2,5,2,4b,,1b/8b,,,8,7,6,5,
{16}4-8[8:1]/3,,,,4/6^3[8:1],,,,16,,,,1,2,3,4,
{16}5-1[8:1]/6,,,,5/3^6[8:1],,,,83,,,,8,7,6,5,
{16}41,,2,1,,7,8,7,1,,6,5,,3,4,3,
{16}5,2,5,2,4,3-1[12:1],4,3,,,,,8,7,6,5,
{16}3-6[8:1]/4,,,,2-7[8:1]/3,,,,2/8,,,,1,2,3,4,
{16}6-1[8:1]/5,,,,7-4[8:1]/6,,,,7/1,,,,8,7,6,5,
{16}41,,2,1,,7,8,,16,,6,5,,3,4,,
{16}1,1,8,8,,27,,,6,6,5,5,4,4,3,,
{16}1<1[2:3],,,,,,,,,,,,,,,,
{16},,,,,,,,,,,,,,,,
{16}6^4[8:1],,,,,,,,3h[4:1],,,,,,,,
{16}3^5[8:1],,,,,,,,6h[4:1],,,,,,,,
{16}1^4[8:1],,,,,,,,5h[4:1],,,,6,,,,
{16}8^5[8:1],,,,,,,,4h[4:1],,,,3,,,,
{16}2h[16:3],,,5,3h[16:3],,,6,4h[16:3],,8,,57,,46,,
{16}3,4,3,4,2,5,2,,1,8,1,8,2b/7b,,,,
{16}1-5[8:1],,,7V53[16:3],1,,,7,2b-6[8:1],,,,7-1[8:1],,7,,
{16}6^3[8:1],,6,,1,,2qq7[8:3],,,,3,,4,,4,,
{16}5-2[8:1],,,,7-4[8:1]/5,,,,1-6[8:1]/7,,,,3p8[16:5]/1,,,,
{16}35,,,,,,,,1v7[8:1]/2v4[8:1],,,,12,,,,
{24}8h[8:1],,,,7,6,5/1h[8:1],,,,2,3,{16}/4/8qq1[8:3],,,,2,,2pp1[8:3],,
{16},,2,,,,8,,7,,6,,52,,3,,
{16}4-2[8:1],,5,,6-3[8:1],,7,,8-4[8:1],,1,,2V86[16:3],,3,,
{16}4,,4p1[8:3],,4,,5b^8[8:1],,,,,,,,,,
{16}6-2[8:1],,,3V17[16:3],6,,,3,5b-1[8:1],,,,2-4[8:1],,2,,
{16}1^6[8:1],,1,,4,,5qq2[8:3],,,,6,,7,,7,,
{16}1-6[8:1],,,,1b/7b-3[8:1],,,,4b-8[8:1]/7b,,,,3qq4[4:1]/4pp3[4:1],,,,
{16}3b/4b,,,,,,,,8-4[8:1]/2,,4-7[8:1],,8,,,,
{24}1h[16:2],,,,2,3,4/8h[16:2],,,,7,6,{16}5^8[8:1]/1p4[8:1],,,,15,,,,
{24}4h[16:2]/8,,,,3,2,1/5h[16:2],,,,6,7,{16}8/4pp5[4:1],,,,1,,1,,
{16},,8,,75,,64,,53,,42,,31,,81,,
{16}6,5,7,,64,,2,1,3,,82,,4-1[32:33],5,2,7,
{16},,,,,,,,,,,,,,,,
{16},,,,2b/7b,,,,6,6,7,7,8,8,1,1,
{16}2,,,3,84,,,6,15,1,7,2,,18,,2,
{16}5,4,5,6,5,4,5,2,5,4,5,8,,37,37,,
{16}14,,,2,37,,,6,15,5,4,7,,81,,7,
{16}4,5,4,3,4,5,4,7,4-8[12:1],5,4,1,,,,,
{16}5^8[8:1]/7,,,3,35,,,1,28,8,3,3,,25,,1,
{16}6,5,6,8,6,5,6,3,6,5,6,8,6,5,6,3,
{16}8^3[8:1],,,7,78,,,5,45,4,7,7,,38,,2,
{16}4,3,8,6,7z3[2:1],1,3,2,,,,,,,,,
{16},,,,,,,,,,,,,E
