&title=Adjudicatorz-断罪-
&artist=NoKANY
&first=0.06
&lv_5=14
&des_5=简心单视
&inote_5=
(191){4},,,,,,,,6h[4:3]/5>3[4:1],
{2},{8}5,4,
{4}3h[4:3]/5<7[4:1],{2},{8}5,6,
{4}7h[4:3]/4>2[4:1],{2},{8}4,3,
{1}2h[4:3]/4<8[2:1],
{8}3,3,B6,E7,{16}E3,B3,{8}B4,{4}A5,
{8}6,6,B3,E3,{16}E7,B6,{8}B5,{4}A4,
{16}E6,B5,{8}B4,E2,B8,{16}E4,B3,{8}B2,E8,B6,
{1}4-8-5-2b[2:1],
{8}6,6h[4:1],7,7h[4:1],8,8h[4:1],{16}1-7-4-2-6[4:3],2,3,4h[16:13],
{1},{8}3,
3h[4:1],2,2h[4:1],1,1h[4:1],{16}8-4-2-5-7[4:3],7,6,5h[16:13],
{1},{8}1,
1h[4:1],3,3h[4:1],2,2h[4:1],{16}4-8-3-6-1[4:3],5,6,7h[16:13],
{1},{8}7,
7h[4:1],4,4h[4:1],6,6h[4:1],{16}5,4,3,2,
1,5,3,7,2,6,4,8,{32}7,6,5,4,3,2,1,8,7,6,5,4,3,2,1,8,
{8}4bx,4h[4:1],5-1[8:1],5,6,6h[4:1],{16}8,1,2,3,
{8}7,7h[4:1],8-4[8:1],8,1,1h[4:1],{16}5,6,7,8,
{8}2,2h[4:1],1-5[8:1],1,8,8h[4:1],{16}4,3,2,1,
{8}5,5h[4:1],4-8[8:1],4,3,3h[4:1],{16}1,8,7,6,
{8}2-4[8:1],2,5-1[8:1],5,6,6h[4:1],{16}2,3,4,5,
{8}7-5[8:1],7,4-8[8:1],4,3,3h[4:1],{16}7,6,5,4,
{8}2-8[8:1],2,7-3[8:1],7,6,6h[4:1],{16}2,1,8,7,
{1}6b-2-8-4b[8:5]*-1-5b[8:5],
{16}2h[16:3],{8},{16}4,{8}3,4/5,{16}6h[4:1],5,{8},4,3/6,
{16}7h[16:3],{8},{16}5,{8}6,5/4,{16}3h[4:1],4,{8},5,6/3,
{16}2h[16:3],{8},{16}4,{8}3,5h[8:1],{16}3-6[8:1],4,{8},{4}3x/6x,
{8}7h[8:1],{16}1,8,{8}2,2,8-4[8:1],3-8[8:1],8,3,
{16}6h[16:3],{8},{16}8,{8}7,1/8,{16}2h[4:1],1,{8},8,2/7,
{16}3h[16:3],{8},{16}1,{8}2,1/8,{16}7h[4:1],8,{8},1,2/7,
{16}6h[16:3],{8},{16}8,{8}7,1h[8:1],{16}7-2[8:1],8,{8},{4}7x/2x,
{8}3h[8:1],{16}5,4,{8}6,1h[4:1],8-4[8:1],7-3[8:1],8,7,
{16}2xh[16:3],{8},{16}4,{8}3,2/5h[8:1],{16}3,4,{8},5/3,6,
{16}7h[16:3],{8},{16}5,{8}6,7/4h[8:1],{16}6,5,{8},4/6,3,
{16}2h[16:3],{8},{16}8,{8}8/3,4h[8:1],{16}7-4[8:1],5,{8},{4}7x/3x,
{8}2h[4:1],{16}1,8,{8}7-5[8:1],3-1[8:1],7-3[8:1],3-7[8:1],{4}7,
{16}1h[16:3],{8},{16}6,{8}2,4/3,{16}6h[4:1],5,{8},8,7/1,
{16}8h[16:3],{8},{16}3,{8}7,5/6,{16}2h[4:1],4,{8},1,3/8,
4x-8[8:1],4,5,6,7x-3[8:1],7,8,1,
{16}2,4,2,4,1,5,1,5,{8}8>3[8:1],4-8[8:1],8bw4[4:3],4b,
{1}Cf,
{8}2h[4:3],{4},{16}E4,E5,{2}E6,
{64}4,7h,{32},,,,,,,,,,,{8}6,5,4,{4}5,
{64}5,2h,{32},,,,,,,,,,,{16}E4,E5,{4}E6,3,
{64}3,6h,{32},,,,,,,,,,,{8}5,,6,{64}4,7h,{32},,,,,,,{64}7,
2h,{32},,,,,,,,,,,{16}E7,E6,{64}E5,{4},{64}1h,{32},,,,,,,{64}4,
8h,{32},,,,,,,,,,,{8}7,6,5,{4}6,
{64}5,1h,{32},,,,,,,,,,,{16}E4,E3,{4}E2,7,
{8}8-6-4[8:3],{4},{8}4,,3,{4}2,
{8}1-3-5[8:3],{4},{16}E6,E7,{4}E8,1,
{8}6-8-2[8:3],{4},{8}2,,3,{4}4,
{8}4-2-8[8:3],{4},{16}E8,E7,{4}E6,4,
{8}6-3-1[8:3],{4},{8}1-5[4:1],,4,{4}4,
{8}3h[8:5],{4},{16}B4,C,{4}B8,1,
{8}7-5-2[8:3],{4},{8}2-6[8:1],,1,{4}1,
{8}8h[4:3],{4},{16}E7,C,{4}E3,4x,
{8}5/2,3,5,3,5,4,5,1,
4,1,4,1,5,1,8,1,
8,2,8,2,8,4,8,6,
7b/5b,7b/5b,{4},8b-5[8:1]/2b-6[8:1],8b/2b-4[8:1],
{8}2b,6,5,6,5,6,8,6,
2,5,2,5,2,4,2,1,
8/3,4,7,4,5,4,1,4,
{4}8b/3b-7[8:1],3b/6b-1[8:1],4b-8b[8:1]/6b>3[8:1],4bx/6bx,
{8}1bx/5x,2,3/7,8,6/2,1,8/7,8/7,
5x/1x,6,7/3,4,2/6,5,4/3,4/3,
2x/5x,3,6/4,5,8/6,7,8/1,8/1,
7x/4x,6,3/5,4,1/3,2,1/8,1/8,
7x/4x,2b,5/3,8b,7/1,5b,8/2,4b,
7x/5x,3b,1/4,7b,8/6,3b,1/5,7b,
6/2,6/2,7/3,7/3,8/4,4/8,1/5,1/5,
{32}D1/D5,A8/A4,E8/E4,A7/A3,{8}D7/D3,{16}1x,1x,1x,1x,{32}1xv6[8:1]*v4[8:1],2,3,4,5,6,7,8,{4},{8}7/5,
6h[4:1],{16}8-4[8:1],1,2-6-4-1[4:1],3,{8}8,2,7,8,
7-4[8:1],8-2[8:1],7,8-5[8:1],6,3-8[8:1],4,3,
5-2>4-8[8:3],6,{4}5x/7h[8:3],,{8}1-5[8:1],2,
{4}1x/3h[4:1],{16}6,7,8,1,6,7,8,1,6,7,8,1,
{8}2/4,3h[4:1],{16}1-5[8:1],8,7-4[8:1],6,{8}1-3-6[8:1],7,1,7,
8-6[8:1],5-2[8:1],8-4[8:1],5,8>3[8:1],1,5,6,
4-1-7-3[8:3],3,{4}4x/2h[8:3],,{8}4-8[8:1],5,
{4}4x/6h[4:1],{16}1b,2,3,4,8b,1,2,3,7b,8,1,2,
{8}3/5,2h[4:1],{16}1-5[8:1],8,7-3-5-8[4:1],6,{8}1,7,2,1,
2-5[8:1],1-7[8:1],2,1-4[8:1],3,6-1[8:1],5,6,
4-7<5-1[8:3],3,{4}4x/2h[8:3],,{8}8-4[8:1],7,
{4}8x/6h[4:1],{16}3,2,1,8,3,2,1,8,3,2,1,8,
{8}7/5,6h[4:1],{16}8-4[8:1],1,2q6[8:1],3,{8}8<5[8:1],2,8,2,
1-3[8:1],4-7[8:1],1,4,1,8q4[8:1],2,7,
5-8-2-6[8:3],6,{4}5x/7h[8:3],,{8}5-1[8:1],4,
{4}5x/3h[4:1],{16}8b,7,6,5,1b,8,7,6,2b,1,8,7,
{8}4x-8[8:1],4,5-1[8:1],5,6-2[8:1],6,7-3[8:1],7,
1-5[8:1],1,8-4[8:1],8,7-3[8:1],7,6-2[8:1],6,
4-8[8:1],4,5-1[8:1],5,2-6[8:1],2,8,7,
5<8[8:1],4,3,2,1>4[8:1],8,7,6,
2-5[8:1],1,8-4[8:1],1,2-5[8:1],1,7-4[8:1],8,
1-5[8:1],8,7-3[8:1],8,1-4[8:1],8,1,5,
8-6[8:1],5,8x-3[8:1],4,8x<5[8:1],5,8x,2,
1x/4x,2/5,3/6,7/4,8b/2b,1b/6b,3b/4b,7b/5b,
{1}4-8[2:1]/1-6-3[2:1],
1-5[2:1]/4-7-2[2:1],
8-4[2:1]/3s7[2:1],
1s5[2:1]/3<6[2:1],
{4}6/5,5/4,4/3,5/4,
7/6,1/8,3/2,5/4,
{8}3,3,4,4,5,5,6,6,
{16}4,7,4,7,4,7,4,7,5,6,7,8,1/5,2/6,3/7,4/8,
{1}5b-2-7[4:15]/1bq4[4:15],
C,
C,
C,
E
