&title=いけないボーダーライン
&artist=Walküre
&first=-0.22
&des=salap (ギリギリ愛~)
&lv_5=13+
&inote_1=
&inote_5=(161)
{1},
{1}1qq1-4<5b[2:7],,,,
{8}7,6,5,4,2,3,4,5,6,5,4,3,3,4,5,6,
{4}Chf[2:3],,,,,,
{8},8p4[8:1],8,8,2q6[8:1],,2,,,7p3[8:1],7,7,1q5[8:1],,1,,,
{8}6p2[8:1],6,6,8q4[8:1],,8,,6<3[4:3],6q3[8:5],,,,,,,,
{8}1,2v5[8:1],3,2/6v1[8:1],,6,,4,4h[4:1],,5h[1:1],,E5,E6,B3,B7,,
{8}3>6[4:5],3p6[8:9],,
{4},,,,,,
{8}1v4[8:1],1,1,5-1b[8:1],,5,,,2v5[8:1],2,2,6-2b[8:1],,6,,,
{8}3v6[8:1],3,3,7-3b[8:1],,7,,4h[8:1],5h[8:1],6<3[8:3],6q3b[4:1],,,,,,
{8}8,7v4[8:1],6,7/3v8b[8:1],,3,,5,5h[4:1],,4h[1:1],,E5,E4,B6,B2,,
{8}5,5-1[1:1]*-1[1:1]*-1[1:1]*-1[1:1]*-1[1:1],,
{4},,,,,,
{8}1,1-7[8:1]*-6[8:1],1,1-3[8:1]*-4[8:1],,1,,
{8}6h[8:1],5h[8:1],4h[8:1],3h[8:1],4,
{16}3,4,3,,2/5,,1/6,,
{8}8,8-2>3[8:1]*-3[8:1],8,8-6>5[8:1]*-5[8:1],,8,,
{8}3h[8:1],4h[8:1],5h[8:1],6h[8:1],5,
{16}6,5,6,,7/4,,6/5,,
{8}5/6,4-7[8:1]/5-7[8:1],3/4,4-2[8:1]/5-2[8:1],,4/5,,
{8}1,8,1,8,1h[1:1],,E7,E4,B6,B4,E6,E5,5qq2[1:1]*pp8[1:1],
{4},,,,,,
{8}1,1-3[8:1]*-5[8:1],,1-4[8:1]*-6[8:1],,1,,
{8}5h[8:1],6h[8:1],7h[8:1],8h[8:1],1,
{16}8,1,8,,2/7,,1/8,,
{8}8,8-6[8:1]*-4[8:1],,8-5[8:1]*-3[8:1],,8,,
{8}4h[8:1],3h[8:1],2h[8:1],1h[8:1],8,
{16}1,8,1,,7/2,,8/1,,
{8}3/6,4-6<7[8:1]/5-7[8:1],B4/B5,4-2[8:1]/5-3>2[8:1],,4/5,,
{8}8,1,8,1,8h[1:1],,E3,E6,B3,B5,E4,E5,4qq8[3:4]*pp8[3:4],,,
{4},,,,,,,
{4}1>3[8:1],1/5<7[8:1],2>4[8:1]/5,2/6<8[8:1],3<5[8:1]/6,3/7>1[8:1],
{4}4<6[8:1]/7,4/8>2[8:1],5<7[8:1]/8,5/1>3[8:1],6<8[8:1]/1,6,
{8}Ch[4:1],,,E1,E4,E6,,,
{4}8<7-5b[8:1]*>1-3b[8:1],D8/D1/A8,1>2-4b[8:1]*<8-6b[8:1],D2/D1/A1,
{4}8<5b[8:1]/1>4b[8:1],A8/A1/D1,
{8}E8/B8/B7,B1/B2/E2,B4/B5/E5,Ch[4:3],,,,,,,,
{16}4,5,4,5,3,6,3,6,2,7,2,7,1,8,1,8,2xb/7xb,,
{8},,,
{8}1-5[8:1],5-1[8:1],1v4>1[4:3]*v6<1[4:3],,,,,,,,,,
{8}2/6,3/7,4p8[8:1]/8p4[8:1],,4/8,,4x/8x,4x<8[2:1]/8x>4[2:1],,,,,,,,,
{8}3V15[4:1]/4,7/8,3/4,6,7-4[8:1],8-3[8:1],7,8,7-2[8:1],,7b,,
{8}4/8,3/7,2/6,1/5,4/8,,8xq2[4:5],4xq6b[8:9],,,,,,,,,,,,,
{8}1,8,1-3[8:1],8-6[8:1],1-5[8:1],8-4[8:1],1>1b[4:3],8,1,,,,,,,,
{8}3/4,2,1/8,7,5/6,,1,1qq1-4<5b[8:5],,,,,,,,,
{8}3v8[8:1]/5,7v4b[8:1]/1,3-6[8:1]/5,7,3,7-3[8:1],3,7,2-7b[8:1],,2b,,
{8}5/1,6/2,7/3,8/4,5/1,,1xpp4>8[4:5],5xpp8<4b[8:9],
{4},,,,,,Chf[8:13],,,,,,
{8},B1/B2/B3/B4/B5/B6/B7/B8/E1/E2/E3/E4/E5/E6/E7/E8,,,,,
{8}2/6,4/8,3/7,1/5,
{32}1x,2x,3x,4x,5x,6x,7x,8x,1x,2x,3x,4x,5x,6x,7x,8x,
{32}1x,2x,3x,4x,5x,6x,7x,8x,1x,2x,3x,4x,5x,6x,7x,8x,
{8}5x-1[8:1]*-1[8:1],5,5w1b[8:1],,5,,4x/8x,4x>8b[2:1]/8x<4b[2:1],,,,,,,,,
{8}1-5b[8:1]/2,7/3,1/8-4[8:1],7,8,3-8b[8:1],8,3/6,7-2[8:1],,7b,,
{8}4/8,3/7,2/6,1/5,4/8,,8xqq4>8[4:5],4xqq8<4b[8:9],,,,,,,,,,,,,
{8}1/7,3/5,2/8,4/6,7/3,5/1,6/2,8/4,
{32}8x,7x,6x,5x,4x,3x,2x,1x,8x,7x,6x,5x,4x,3x,2x,1x,
{32}8x,7x,6x,5x,4x,3x,2x,1x,8x,7x,6x,5x,4x,3x,2x,1x,
{8}4x-7[8:1],4x,4x-1[8:1],4x,4x,,5,5pp5qq5b[8:5],,,,,,,,,
{8}3v8b[8:1]/5,7v4[8:1]/1,3-6b[8:1]/5,7,3,7-3[8:1],3,7,2-7b[8:1],,2b,,
{8}5/1,6/2,7/3,8/4,5/1,,1pp6>2[4:5],5pp2<6b[8:9],
{4},,,,,,Ch[4:3]/B1/B3/B5/B7,,,,
{8}3/4,2,4/6,7,3/4,1,5/3,8,2/4,1,5/6,7,3/5,2,4/6,7,
{8}2/4,3,5/7,6,5/6,4,3/5,2,2/4,1,2/4,3,4/6,7,5/6,8,
{8}4/6,3,3/5,7,4/6,5,3/4,2,4/5,6,3/5,8,2/4,5,4/6,1,
{8}6/4,7,7/5,8,
{8}6h[8:1],5h[8:1],4h[8:1],3h[1:0],3h[8:1],4h[8:1],5h[8:1],6h[1:0],
{8}4/5,4/5,3/6,2/7,
{8}1-4[8:1],3,1-6[8:1],7,1-4[8:1],3,1-6[8:1],7,
{8}1-3[8:1],3,1-7[8:1],7,1-3[8:1],3,1-7[8:1],7,
{8}1-4[8:1],3,1-6b[8:1],7,1-3b[8:1],3,1-7[8:1],7,
{8}1-4[8:1],3,1-6[8:1],7,1-3b[8:1],3,1-5[8:1],7,
{8}1/7v4[8:1],8,2-6[8:1]/7,3,2/8p4b[8:1],7,2v5[8:1]/8,1,
{8}2/6-1[8:1],7,4>1[8:1]/6,3,4/8<5[8:1],7,1-3<4b[8:1]/8,2,
{8}1/8<7-5[8:1],7,3>8[8:1]/8,4,3/6-3b[8:1],5,1/6,
{8}1,2/6,2/6,3/7,3/7,4b/8b,4b/8b,1b/5b,1b/5b,Cf,,,
{8}1b-4-7-3-6-1b[1:2],
E
