&title=Galaxy Collapse
&artist=黒皇帝
&first=0
&des_1=CupLid
&des_2=CupLid
&des_3=CupLid
&des_4=CupLid
&des_5=CupLid
&lv_5=14+
&des_6=CupLid
&des_7=CupLid
&des=CupLid
&inote_5=(270){4},,,,,,,,{2}5,
5,
5,5,
4,4,
4,4,
5,5,
4,4,
6,6,
3,3,
6-1[8:3],4-7[8:3],
5-2[8:3],3-8[8:3],
6-1[8:3],4-7[8:3],
5-2[8:3],3-8[8:3],
6-4[8:3],3-6[8:3],
7-4[8:3],3-7[8:3],
2-4[8:3],5-2[8:3],
1-4[8:3],5-1[4:1],
{4}8bh[8:1],{8}2,3,{4}6h[8:1],{8}2,3,
{4}7h[8:1],{8}2,3,{4}8h[8:1],{8}2,3,
{4}4h[8:1],{8}7,6,{4}3h[8:1],{8}7,6,
{4}2h[8:1],{8}7,6,{4}1h[8:1],{8}7,6,
{4}5h[8:1],{8}2,3,{4}6h[8:1],{8}2,3,
{4}7h[8:1],{8}2,3,{4}8h[8:1],{8}2,3,
{4}4h[8:1],{8}7,6,{4}3h[8:1],{8}7,6,
{4}2h[8:1],{8}7,6,{4}1h[8:1],{8}7,6,
3,5,2,6,3,4,1,6,
3,5,2,8,4,6,2,8,
3,5,2,6,3,4,1,6,
3,5,2,8,4,6,2,2,
6,4,7,3,6,5,8,3,
6,4,7,1,5,3,7,2,
6,4,7,3,6,5,8,3,
6,4,7,1,5,3,6,2,
{1}4bw8[4:13],
,,,{8}6b/2b,
6/2,{4}2/6-4[8:1],2-5[8:1],7-3[8:1],
1-7[8:1],6>3[8:1],2-6[8:1],8,
7/1,3-5[8:1],7-4[8:1],2-6[8:1],
8-2[8:1],3<6[8:1],7h[2:1],{16}8,1,2,3,
{4}4,3-5[8:1],7-4[8:1],2-6[8:1],
8-2[8:1],3<6[8:1],7-3[8:1],1,
2/8,6-4[8:1],2-5[8:1],7-3[8:1],
1-7[8:1],6>3[8:1],2h[2:1],{16}1,8,7,6,
{4}5b-3[8:1],2-6[8:1],7-1[8:1],3-7[8:1],
6-4[8:1],2-8[8:1],7h[2:1],{16}6,5,4,3,
{4}2-4[8:1],5-7[8:1],1-5[8:1],8-6[8:1],
3h[2:1],{16}2,1,8,7,{4}6h[4:1],{16}8,1,2,3,
{4}4-6[8:1],7-3[8:1],2-8[8:1],6-2[8:1],
3-5[8:1],7-1[8:1],2h[2:1],{16}3,4,5,6,
{4}7h[2:1],{16}6h[32:1],5h[32:1],4h[32:1],3h[32:1],{4}2h[2:1],{16}4h[32:1],5h[32:1],6h[32:1],7h[32:1],
8h[1:1],3h[32:1],4h[32:1],5h[32:1],6h[32:1],7h[32:1],,1h[32:1],2h[32:1],3h[32:1],4h[32:1],5h[32:1],6h[32:1],7h[32:1],,1h[32:1],
{4}2>5[2:1],7,6,6,
6<1[2:1],4,3,3,
3h[2:1],1,5h[4:1],1V35[2:1],
7,5-1[4:1],7,{16}8,7,6,5,
{4}4<7[2:1],2,3,3,
3>8[2:1],5,6,6,
6h[2:1],8,4h[4:1],8V64[2:1],
2,4-8[4:1],2,{16}1,2,3,4,
{4}5h[4:1],6h[4:1],8h[4:1],7h[4:1],
3h[4:1],4h[4:1],2h[4:1],1h[4:1],
4<7[4:1],7>2[4:1],2>5[4:1],5-1[4:1],
8,6,7h[4:1],{16}2,3,4,5,
{8}6/8b,8,7,7,6,6,{16}4,3,2,1,
{8}6b,6,8,8,{16}4,5,6,7,1,2,3,4,
{32}D8/E8,A7,D7/E7,A6,D6/E6,A5,,,D2/E2,A2,D3/E3,A3,D4/E4,A4,,,E1/D1,B8,E8/D8,B7,E7/D7,B6,E6/D6,B5,E5/D5,B4,E4/D4,B3,E3/D3,B2,E2/D2,B1,
{4}D1,C,{2}D5,
{8}3b/7b,3/7,{4}7/3-5[8:1],7-4[8:1],2-6[8:1],
8-2[8:1],3<6[8:1],7-3[8:1],{8}1,1,
{4}2/8,6-4[8:1],2-5[8:1],7-3[8:1],
1-7[8:1],6>3[8:1],{8}2,2h[8:3],{16}1,8,7,6,
{4}5,6-4[8:1],2-5[8:1],7-3[8:1],
1-7[8:1],6>3[8:1],2-6[8:1],{8}8,8,
{4}7/1,3-5[8:1],7-4[8:1],2-6[8:1],
8-2[8:1],3<6[8:1],{8}7,7h[8:3],{16}8,1,2,3,
{4}4b-6[8:1],7-3[8:1],2-8[8:1],6-2[8:1],
{8}3-5[8:1],3,7-1[8:1],7,2,2h[8:3],{16}3,4,5,6,
{4}7-5[8:1],4-2[8:1],8-4[8:1],1-3[8:1],
{8}6,6h[8:3],{16}7,8,1,2,{8}3,3h[8:3],{16}1,8,7,6,
{4}5-3[8:1],2-6[8:1],7-1[8:1],3-7[8:1],
{8}6-4[8:1],6,2-8[8:1],2,{4}7h[2:1],{16}6,5,4,3,
{4}2h[2:1],{16}3h[32:1],4h[32:1],5h[32:1],6h[32:1],{4}7h[2:1],{16}5h[32:1],4h[32:1],3h[32:1],2h[32:1],
{24}1h[1:1],6,5,4,3,2,,8,7,6,5,4,3,2,,8,7,6,5,4,3,2,,,{2}D1/E1/B1/Cf/B5/E5/D5,
(150)7h[4:15]/3h[4:13],
,,,,,,Ch[1:1],
{8}B6h[4:3],B3h[24:17],B5h[3:2],B4h[8:5],
,,,,,,E8,E2,
E1h[4:3],,,E5h[8:3],,,A8/B8/B4/A4,E7/E3/A7/A3,
{1}E6h[2:1]/E2h[4:1],
{4}4b/2bpp4>8[4:3],5,,6,
7qq5<1[4:3],4,{8},,3,3,
{4}4>1v3[2:1],{8}6,6,{4}7,{8}6,6,
{4}2/5<8v6[2:1],{8}3,3,{4}2,{8}3,3,
{2}6/3h[2:1],{8}6h[8:1],5h[8:1],4h[8:1],3h[8:3],
{12}7h[3:1],,,,,2h[24:5],{4}6h[8:1],{8}6/2,3/7,
4h[4:1]/8h[4:1],,,6/2,,,5/1,6/2,
{4}3/7h[4:1],5h[4:1],3h[4:1],{8}1,{32}8,7,6,5,
(165){4}2b/4,2-6[8:1],8h[4:1],(165){8}1h[8:1],{32}8,7,6,5,
(190){4}4/2b,2-6[0.3158##0.15],8h[4:1],{8}1h[8:1],{32}8,7,6,5,
(220){4}4/2b,2-6[0.2857##0.1364],(235)8h[4:1],{8}1h[8:1],{32}8,7,6,5,
(245){4}4/2b,2-6[8:1],(260)8h[4:1],4,
(275)2b/6,2-6[8:1],(290)8h[4:1],4,
(310)2b/6,2-6[0.1936##0.0909],(330)8h[4:1],4,
(350)2b,2-6[0.1714##0.0811],(370){2}8h[4:1],
(380){4}2b,2-6[8:1],{2}8h[2:1],
(400){4}2b,2-6[8:1],{2}8h[#0.3076859],
(440){4}2b,2-6[8:1],{2}8h[#0.272728],
(460){4}2b,2-6[8:1],{2}8h[#0.2608643],
(480){4}2b,2-6[4:1],{2}8h[#0.25],
(510)B7h[1:2],B2h[2:3],
(530)B6h[1:1],B3h[2:1],
(550){12}E1,E8,E7,E6,E5,E4,E3,E2,A8,A7,A6,A5,
A4,A3,A2,A1,D1f/B8,D8f/B7,D7f/B6,D6f/B5,D5f/B4,D4f/B3,D3f/B2,D2f/B1,
(610){1}D1fh[1:6],
,,,,,(270),
(300){4}7b/4b,4/3,5/6,4/2,
8-4[8:1],{8}2,2>5[8:1],,6,{4}6,
7b/4,4/3,5/6,4/2,
8-4[8:1],{8}2,2>5[8:1],,6,{4}6,
7/8b,6/5,1/2,3/4,
7<4[8:1],{8}1,1-5[8:1],,8,{4}8,
4/7b-3[8:1],{8}5,5>1[8:1],,6,{4}6h[2:1],
{16}8b,1,2,3,{4}4h[2:1],{16}5b,6,7,8,{4}1,
2b/5b,5/6,4/3,5/7,
1-5[8:1],{8}7,7<4[8:1],,3,{4}3,
2b/5,5/6,4/3,5/7,
1-5[8:1],{8}7,7<4[8:1],,3,{4}3,
2/1b,3/4,8/7,6/5,
2>5[8:1],{8}8,8-4[8:1],,1,{4}1,
5/2b-6[8:1],{8}4,4<8[8:1],,3,{4}3h[2:1],
{16}1b,8,7,6,{4}5h[2:1],{16}4b,3,2,1,8,7,6,5,
(320){4}4/8bxp4b[8:1],3x>1b[8:1],5x<7b[8:1],8xq4b[8:1],
6xh[8:3],{8}5,5h[8:3],,6,{4}6,
7/1xq5b[8:1],6x<8b[8:1],4x>2b[8:1],1xp5b[8:1],
3xh[8:3],{8}4,4h[8:3],,2,{4}2,
7xp3b[4:1],3x>7b[4:1],7x<3b[4:1],3x,
1xh[8:3],{8}4,4h[8:3],,2,{4}2h[4:1],
{16}6b,7,{8}8h[8:3],{16},,3b,4,{4}5h[4:1],7,
{16}4/8b,3,2,1,8,7,6,5,4/8b,3,2,1,8,7,6,5,
{4}8b/4xp8b[8:1],7x<5b[8:1],1x>3b[8:1],4xq8b[8:1],
2xh[8:3],{8}1,1h[8:3],,2,{4}2,
3/5xq1b[8:1],2x>4b[8:1],8x<6b[8:1],5xp1b[8:1],
7xh[8:3],{8}8,8h[8:3],,6,{4}6,
{16}4b,3,2,1,8,7,6,5,4b,3,2,1,8,7,6,5,
4/8b,3,2,1,8,7,6,5,4/8b,3,2,1,8,7,6,5,
4/8b,3/7,2/6,1/5,8,7,6,5,4/8b,3/7,2/6,1/5,8,7,6,5,
{32}8b/4bx,D4/E4,3bx,D3/E3,2bx,D2/E2,1bx,D1/E1,8bx,D8/E8,7bx,D7/E7,6bx,D6/E6,5bx,D5/E5,{64}A4f,B4,D4,E4,A3f,B3,D3,E3,A2f,B2,D2,E2,A1f,B1,D1,E1,A8f,B8,D8,E8,A7f,B7,D7,E7,A6f,B6,D6,E6,A5f,B5,D5,E5,
{1}4bxw8b[4:61],
,,,,,,,,,,,,,,,6h[1:1],
{8}4h[8:3],,,5h[8:3],,,{4}6h[4:1],
{1}7h[1:1],
{8}5h[8:3],,,6h[8:3],,,{4}7h[4:1],
{1}8h[1:1],
{8}6h[8:3],,,7h[8:3],,,{4}8h[4:1],
{1}1h[1:1],
7h[1:1],
5h[1:2],
3,
1h[1:2],
7,
5h[1:2],
3,
{4}B3,B1,B5,B7,
D3,A1,A5,D7,
E
