&title=Someday Certainly
&artist=Mitsukiyo/社本悠/根本京里
&first=0.98
&des=ホシノニャイン
&lv_5=12.5
&inote_5=(125)
{4},,,,
{4},,,,,
{8}1>4qq8[8:5],,,C,,,,,
{8}8x,8x<5pp1[8:5],,1,2,3,4,3,
{8}4h[8:2],,5<1[8:3],5,,2,3,4,
{8}4,4>1>4[8:4],,8,7,6,5,6,
{8}5xb/4xb,
{8}4,3,2,1,1,2,3-7[8:2],,
{8}4,5,6,,,
{8}7,7-4[8:2],,3,3-8[8:2],,,,
{8}5,5-8[8:2],
{4}1b-4[8:1],1,8x-5[8:1],8,
{8}4xb/5xb,
{8}5,6,7,8,8,
{8}7,6-2[8:2],,5,4,3,,,
{8}2,2-5[8:2],,,6,6-1[8:2],,4,4-1[8:2],4,
{4}8-5[8:1],8,1-4[8:1],
{4}1-7[8:1],1-3[8:1],1-6[8:1],1,5-8[8:1],5-2[8:1],5-7[8:1],5,
{16},,,6x,6x,,7,,8,,1,,
{4}2-4[8:1]*-5[8:1],2-8[8:1]*-7[8:1],2w6[8:1],2,,
{4}8-5[8:1],8-3[8:1],8-6[8:1],8,4-1[8:1],4-7[8:1],4-2[8:1],4,
{8},3h[8:5],2,1,8,7,6h[8:3],,2,3,
{4}4xqq1[8:5]/8xqq5[8:5],,,,
{8}Chf[8:8],
{8}E5,E4,
{8}E3,E2,E1,E8,E7,
{8}B6/B7/B2/B3,,,1b-5[8:1]/2b-6[8:1],12,,,
{8}7b-3[8:1]/8b-4[8:1],78,,,5b-1[8:1]/6b-2[8:1],56,,,
{8}4,3,2>5[8:1],8,7,
{8}6<1[8:1],,6,,2h[8:4],,,E6/B6/B5,E8/B7/B8,,,
{8}2,2v4[8:1],,,6,6v8[8:1],,,
{8}3,2,1>3[8:1],7,6,
{4}5<7[8:1],5w1b[8:4],5,,,
{8}1,1w5[8:1],,,,
{8}Chf[8:5],E5,E6,E7,E8,
{8}B8/B1/B5/B4,,,7b-3[8:1]/8b-4[8:1],78,,,
{8}1b-5[8:1]/2b-6[8:1],12,,,3b-7[8:1]/4b-8[8:1],34,,,
{8}2,3,4>1[8:1],6,7,
{8}8<5[8:1],,8,,1h[8:4],,,E7/B7/B6,E7/B7/B6,,,
{8}7,7v5[8:1],,,3,3v1[8:1],,,8<4[8:2]*<8[8:4],8,,,,,,
{8}4,3,2,
{8}1x/5x,1x/5x,2x/6x,2x/6x,3x/7x,3x/7x,4x/8x,
{8}4xv1[8:1]/8xv5[8:1],,48,,8w4[8:2],17,8x,,,,,,,,,,,,,,,,
E
