&title=ÅMARA(大未来電脳)
&artist=sasakure.UK
&first=0.02
&des=sreCP
&lv_6=14+
&des_6=sreCP
&inote_6=
(230){4},{8},,,,,,7,
6,5,4,3,2,3,4,
5,,,7,,8,8,8,
1,2,3,4,5,6,7,6,
5,4,3,2,,1,,,7,
6,5,4,3,2,3,4,
5,,,7,,,8,1,
1,2,3,4,5,6,7,6,
{1}5-1[2:1],
{4}7-5[8:1],{8}2,2h[4:1],,,{4}1,
8-4[8:1],{8}1,1h[4:1],,,{4}2,
7-5[8:1],{8}3,3h[4:1],,,{4}2,
8-4[8:1],{8}1,1h[4:1],,,{4}3,
7-5[8:1],{8}4,4,,3,{4}3,
8-4[8:1],{8}2,2,,1,{4}1,
7-5[8:1],{8}3,2,,2,{4}1,
8-4[8:1],{8}1,3,,2,{4}2,
{8}8,7,6,5,4,3,2,1>4[2:1],
,8,,7,,1,8,7,
,6s2z6[2:3],{4}5,{8},,,,,,,,,,,1,
1,2,3,4,5,6,7,8>3[2:1],
,8,,4,,4,5,6,
,7s3z7[2:3],,,,,,,,,,,,,,,1>3[8:1],
8,1,7<5[8:1],1,7,8>2[8:1],7,
8,7-4[8:1],8,7,,,{4}5,
{8}3-1[8:1],5,3,8-6[8:1],3,8,3<5[8:1],8,
3,7-2[8:1],3,7,,,,8>5[8:7],
{1}8q5[4:3],
{8},,,2,,4,{4}4h[4:1],
5h[4:1],{8}7,7h[4:1],,1h[4:1],,2h[4:1],
,3,{32},4,,,,,,5,,,,,,6,,,,,,7-3>2-6<7b[0.2533##9.5769],,,,,,(260),
{1},,,,,{4},,,{16},,,{32},1,
,,,,,,,,,,,,,,,8,,,,,,,,,,,,1,,,,,,,,,,,,8-4[4:1],
{4},,{16},,,{32},8,
,,,,,,,,,,,,,,,1,,,,,,,,1,,,,,,,,8,
,,,,,,,,,,,,,,,1-5[4:1],,,,,,,,,,,,,,,,,,,,8,
{4},,,{16},{32},8,
,,,,,,,,,,,,,,,1,,,,,,,,1,{4},,,{16},,,{32},8,
,,,8-5[8:1],,,,,,,,8-3[8:1],
,,,,,,,8-4[8:1],,,,,,,,8,,,,1x,,,,,,,,2,
,,,2-4[8:1],,,,,,,,2-7[8:1],,,,,,,,2-5[8:1],,,,,,,,2,,,,7x,
,,,,,,,6,,,,6-1[8:1],,,,,,,,6-3[8:1],,,,,,,,6<8[8:1],,,,,,,,6,
,,,2x,,,,,,,,1/5,,,,1-7[8:1]/5-7[8:1],,,,,,,,1-3[8:1]/5-3[8:1],,,,,,,,1/5-8[8:1],
,,,,,,,5,,,,,,,,,,,,2/7,,,,2-7[8:1]/7v4[8:1],,,,,,,,7/2<4[2:1],
,,,,,,,3,,,,,,,,3,,,,,,,,,,,,8,
,,,8-2[8:1]*-3[8:1],,,,,,,,8-4[8:1],,,,,,,,8-5[8:1]*-6[8:1],,,,,,,,8,,,,,,,,,,,,1,
,,,2-4[8:1],,,,,,,,2/6-1[8:1],,,,,,,,6/2>5[8:1],,,,,,,,2,
,,,,,,,,,,,7x/6h[8:1],,,,,,8h[8:1],,,,,,1h[8:1],,,,,,2/7h,
,,,,,6h,,,,,,5h,,,,,,4h,,,,,,3h,,,,,,2h,
,,,,,(230)1b/2,,,,3,,,,4,,,,5,,,,6,,,,7/8,,,,6,
,,,5,,,,4-7[8:1],,,,,,,,,,,,2,,,,,,,,,,,,1/8,
,,,1/8,,,,8b,,,,7,,,,6,,,,5,,,,4,,,,3,,,,2,
,,,1,,,,1bx/2,,,,3,,,,4,,,,5,,,,6,,,,7/8,,,,6,
,,,5,,,,4-7[8:1],,,,,,,,,,,,2,,,,,,,,,,,,4/5h[4:1],
,,,6x,,,,7x,,,,4,,,,8,,,,4,,,,1,,,,5,,,,5h[12:1]/1h[12:1],
,,,,,2h[13:1]/6h[13:1],,,,,,7h[14:1]/3h[14:1],,,,,,8/4h[12:1],,,,,,4x/5x,,,,4,,,,5,
,,,3,,,,6,,,,2,,,,7,,,,1,,,,,,,,8<5[2:1],,,,,,,,8,
,,,,,,,1,,,,2,,,,3,,,,,,,,3b,,7,,3,
,7,,2,,6,,2,,6,,1,,5,,1,,5,,1,,5,,1,,5,,1,,5,,1,
,5,,1-5[8:1],,5,,,,,,,,,,,,,,,,,,1,,,,1,,,,2,
,,,3,,,,4,,,,5,,,,6,,,,7-1[8:1],,,,,,,,5,,,,,,,,3,
,,,,,,,8,,,,1,,,,2,,,,3b,,8,,3,,8,,3,
,8,,2,,7,,2,,7,,1,,6,,1,,5,,1,,6,,1,,5,,1,,6,,1,
,5,,1-5[8:1],,,,,,,,,,,,,,,,,,,,2-6[8:1],,,,1,,,,2,
,,,1<7[8:1],,,,2,,,,1,,,,3<5[8:1],,,,1,,,,3,,,,6-2[8:1],,,,3,
,,,6,,,,,,,,,,,,8,,,,,,,,6-2[8:1],,,,4,,,,6,
,,,5>3[8:1],,,,7,,,,5,,,,7>1[8:1],,,,5,,,,7,,,,2-6[8:1],,,,4,
,,,2,,,,,,,,,,,,,,,,1/8,,,,,,,,1,,,,1h[4:1],
,,,3,,,,,,,,4,,,,,,,,4h[4:1],,,,,,,,,,,,,,,,5/6h[4:1],
,,,,,,,8,,,,1/8h[4:1],,,,,,,,2h[4:1],,,,,,,,3,
,,,4h[4:1],,,,,,,,5h[4:1],,,,,,,,6h[4:1],,,,,,,,7,,,,1/8,
,,,,,2/3,,,,,,4/5,,,,,,6/7,,,,,,(256)4h[4:1],,,,,,,,,,,,,,,,4h[4:1]/Ch[4:3],
,,,,,,,,,,,,,,,4h[4:1],,,,,,,,,,,,,,,,4h[4:1],
,,,,,,,,,,,,,,,5h[4:1],,,,,,,,,,,,,,,,5h[4:1]/Ch[4:3],
,,,,,,,,,,,,,,,5h[4:1],,,,,,,,,,,,,,,,5h[4:1],
,,,,,,,,,,,,,,,5/4h[4:1],,,,,,,,,,,,,,,,5/4h[4:1],
,,,,,,,7,,,,,,,,7/4h[4:1],,,,,,,,5,
,,,,,,,4h[4:1],,7,,,,,,,,,,7,,,,5xh[4:1]/8>1<8>1<8>1<8>1<8>1<8>1-3[4:3],,,,,,,,,,,,,,,,5h[4:1],
,,,,,,,,,,,,,,,5h[4:1],,,,,,,,,,,,,,,,5h[4:1],
,,,,,,,,,,,,,,,4h[4:1]/1h[8:1],,,,,,,,,,,,,,,,4h[4:1],
,,,,,,,,,,,,,,,5/4h[4:1],,,,,,,,6,
,,,6,,,,6/4h[4:1],,,,,,,,7,,,,,,,,1/5h[4:1],,,,,,,,2,
,,,,,,,3/5h[4:1],,,,,,,,4,,,,,,,,6/5h[4:1],,,,,,,,,,,,,,,,6/5h[4:1],
,,,,,,,8,,,,,,,,8/4h[4:1],,,,,,,,6,
,,,,,,,4h[4:1],,8,,,,,,,,,,8,{1},{16},{32},1/4,
,,,1-7[8:1]/4-6[8:1],,,,,,,,1-4[8:1]/4-1[8:1],
,,,,,,,4/1-5[8:1],,,,,,,,,,,,,,,,,,,,1/6,
,,,1-4[8:1]/6-3[8:1],,,,,,,,1<6[8:1]/6<1[8:1],,,,,,,,1/6-2[8:1],,,,,,,,,,,,,,,,,,,,4/7,
,,,4-7[8:1]/7-4[8:1],,,,,,,,4/7>2[8:1],,,,,,,,,,,,,,,,A7,
D7,A6,D6,A5,D5,A4,,,,,,2/7,,,,2-8[8:1]/7-1[8:1],,,,,,,,2-6[8:1]/7-4[8:1],,,,,,,,2/7-3[8:1],
,,,,,,,,,,,,,,,,,,,8/5,,,,8-2[8:1]/5-3[8:1],,,,,,,,8-5[8:1]/5-8[8:1],
,,,,,,,5/8-4[8:1],,,,,,,,,,,,,,,,,,,,8/3,
,,,8-5[8:1]/3-6[8:1],,,,,,,,8>3[8:1]/3>8[8:1],,,,,,,,8/3-7[8:1],,,,,,,,,,,,,,,,,,,,5/2,
,,,5-8[8:1]/2-4[8:1],,,,,,,,5/2<7[8:1],,,,,,,,2-5[8:1],,,,,,,,,,,,,,,,,,,,7/2,
,,,7-1[8:1]/2-8[8:1],,,,,,,,7-3[8:1]/2-4[8:1],,,,,,,,7/2-6[8:1],
,,,,,,,,,,,,,,,,,,,(266)1h[12:1],{96},,,,,,,,,,,,,1h[12:1],,,,,,,,,,,,,,,,1h[12:1],
,,,,,,,,,,,,,,,{32}2,{96},3,,,,4,,,,,,,,1,,,,2,,,,{32}3,{96},,,,,8,,,,{32}1,{96},2,,,,,,,,{32}7,{96},8,,,,1,,,,,,,,3h[12:1],{4},{16},{96},{32}6h[12:1],
{96},,,,,,,,,,,,,6h[12:1],,,,,,,,,,,,,,,,6h[12:1],,,,,,,,,,,,,,,,{32}4,{96},5,,,,6,,,,,,,,3,,,,4,,,,{32}5,
{96},,,,,2,,,,{32}3,{96},4,,,,,,,,{32}1,{96},2,,,,3,,,,,,,,5h[12:1],{4},{16},{96},{32}8h[12:1],{96},,,,,,,,,,,,,8h[12:1],,,,,,,,,,,,,,,,8h[12:1],
,,,,,,,,,,,,,,,{32}1,{96},2,,,,3,,,,,,,,8,,,,1,,,,{32}2,{96},,,,,7,,,,{32}8,{96},1,,,,,,,,{32}6,{96},7,,,,8,,,,,,,,2h[12:1],{4},{16},{96},{32}2h[12:1],
{96},,,,,,,,,,,,,2h[12:1],,,,,,,,,,,,,,,,2h[12:1],,,,,,,,,,,,,,,,{32}1,{96},8,,,,7,,,,,,,,2,,,,1,,,,{32}8,
{96},,,,,3,,,,{32}2,{96},1,,,,,,,,{32}4,{96},3,,,,2,,,,,,,,8h[12:1],{4},{16},{96},(276){32}1,{96},,,,,,,,,,,,,8,,,,,,,,,,,,,,,,1,
,,,,,,,,,,,,,,,{32}8,{96},7,,,,6,,,,,,,,1,,,,2,,,,{32}3,{96},,,,,8,,,,{32}7,{96},6,,,,,,,,{32}1,{96},2,,,,3,,,,,,,,4h[12:1],,,,,,,,,,,,5,
,,,,,,,,,,,,,,,,,,,{32}2,{96},,,,,,,,,,,,,1,,,,,,,,,,,,,,,,2,,,,,,,,,,,,,,,,{32}1,{96},8,,,,7,,,,,,,,2,,,,3,,,,{32}4,
{96},,,,,1,,,,{32}8,{96},7,,,,,,,,{32}2,{96},3,,,,4,,,,,,,,5h[12:1],,,,,,,,,,,,6,,,,,,,,,,,,,,,,,,,,{32}7,{96},,,,,,,,,,,,,8,,,,,,,,,,,,,,,,7,
,,,,,,,,,,,,,,,{32}8,{96},1,,,,2,,,,,,,,7,,,,6,,,,{32}5,{96},,,,,8,,,,{32}1,{96},2,,,,,,,,{32}7,{96},6,,,,5,,,,,,,,4h[12:1],,,,,,,,,,,,3,
,,,,,,,,,,,,,,,,,,,{32}8,{96},,,,,,,,,,,,,1,,,,,,,,,,,,,,,,8,,,,,,,,,,,,,,,,{32}1,{96},2,,,,3,,,,,,,,8,,,,7,,,,{32}6,
{96},,,,,1,,,,{32}2,{96},3,,,,,,,,{32}8,{96},7,,,,6,,,,,,,,5h[12:1],,,,,,,,,,,,4,,,,,,,,,,,,,,,,,,,,(229){32}1b/2b,,,,,,3,,,,,,4,
,,,,,5,,,,,,6,,,,,{8}7,{32},8,,,,,{16}7,
{32},,,6,,,,,5,,,,,4,,,,,{16}3,{32},,,2,,,,1,,,,8,
,,,7,,,,6,,,,5,,,,4,,,,3,,,,2,{96},,,,,1,,,,,,,,8,,,,,,,,{32}7,
{96},,,,,6,,,,,,,,5,,,,,,,,{32}4,,3,,2,,1,,8,,7,,6,,5,,4,,3,,2,,1,,8,
7,6,5,4,3,2,1,8,7,6,5,4,3,2,1-5[6.3275##7.7139],8,{1},{4},,,{16},,,{32},(230),
{1},,,{4},,,{16},,,{32},1,
{4},,,{16},,,{32},1,
{4},,,{16},,,{32},1,
{4},,,{16},,,{32},1,
{4},,,{16},,,{32},1,
{4},,,{16},,,{32},1,
{4},,,{16},,,{32},1,
{4},,,{16},,,{32},1,
{4},,,{16},,,{32},(115)8<4[4:1],
,,,,,,,4-8[4:1],,,,,,,,8>3[4:1],
,,,,,,,3-7[4:1],,,,,,,,7<4[4:1],,,,,,,,4s8[4:1],,,,,,,,8V24[4:1],
,,,,,,,4z8[4:1],,,,,,,,8V64[4:1],,,,,,,,4v2[4:1],,,,,,,,2<8[4:1],
,,,,,,,8v6[4:1],,,,,,,,6>4[4:1],,,,,,,,4w8[4:1],{4},,{16},,,{32},(230)7b>2[8:1],
,,,6,,,,5,,,,4<7[8:1],,,,3,
,,,2,,,,3,,,,4,,,,5>3[8:1],,,,,,,,,,,,7,,,,,,,,1,
,,,8,,,,1,,,,1b<6[8:1],,,,2,,,,3,,,,4>1[8:1],,,,5,
,,,6,,,,7,,,,6,,,,5-7[8:1],,,,5-3[8:1],,,,,,,,,,,,,,,,1/8,
,,,,,,,,,,,6b<1[8:1],,,,5,,,,4,,,,3<6[8:1],,,,2,
,,,1,,,,2,,,,3,,,,4>2[8:1],,,,,,,,,,,,6,,,,,,,,8,
,,,7,,,,8,,,,8b<5[8:1],,,,1,,,,2,,,,3>8[8:1],,,,4,
,,,5,,,,6,,,,5,,,,4-6[8:1],,,,4-2[8:1],,,,,,,,,,,,,,,,8/1,
,,,,,,,,,,,7b<6-4[8:1],,,,8,,,,1,,,,2<1-7[8:1],,,,3,
,,,4,,,,5<6-8[8:1],,,,4,,,,3-1[8:1],,,,,,,,,,,,5,,,,,,,,3,
,,,4,,,,3,,,,5b>4-2[8:1],,,,6,,,,7,,,,8<7-5[8:1],,,,1,
,,,2,,,,3,,,,4,,,,3-8[8:1],,,,8-3[8:1],,,,,,,,,,,,,,,,4/5,
,,,,,,,,,,,1b/8b-2>3[8:1],,,,7,,,,6,,,,5-7>8[8:1],,,,4,
,,,3,,,,2-7[8:1],,,,3,,,,4-1[8:1],,,,,,,,,,,,5,,,,,,,,4,
,,,5,,,,4,,,,5b-3[8:1],,,,6,,,,7,,,,8-3[8:1],,,,1,
,,,8,,,,7,,,,6,,,,5h[8:1],,,,,,,,1,,2,,3,,4,,1,
,8,,7,,6,,1<5[4:1],,2,,3,,4,,1b/5p7[4:1],,,,,,,,,,,,2,,,,2v4>1[2:1],
,,,,,,,,,,,1,,,,1-6[4:1],,,,,,,,6>3[4:1],,,,,,,,3v6[4:1],
,,,,,,,8-4[8:1],,,,,,,,8,,,,,,,,1/8-5[8:1],{96},2x,,,,3x,,,,{32}4x,,,,8,
,,,,,,,,,,,7-5[8:1],,,,5v8[4:1],,,,,,,,,,,,1,,,,2v7[4:1],
{96},3,,,,4,{4},{64},,{32}5,,,,5-8[8:1],,,,,,,,5-2[8:1],,,,,,,,5w1[8:1],
,,,,,,,5pp3[2:1],{4},,,{16},,,{32},1-4[8:1]/8-5[8:1],
,,,,,,,1/8,,,,,,,,,,,,1,,,,1,
{96},2,,,,3,{4},{64},,{32}8/4,,,,8/4,,7,,6,,,,4/8,,3,,2,,,,8/4,
,7,,6,,,,4/8,,3,,2,,,,1bxp3>6[1:1],,,,,,,,,,,,8,,,,8,
,,,,,,,,,,,5,,,,5-8[8:1],,,,,,,,5v2[8:1],,,,,,,,5v8[8:1]*-1[8:1],
,,,,,,,5,,,,,,,,2x,,3x,,4x,,5x,,6x/3x,,4x,,5x,,6x,,7x/4x>6[4:3],
,,,,,,,,,,,5,,,,5,,,,,,,,6V42[4:1],,,,,,,,2V85[4:1],
,,,,,,,6,,,,,,,,7h[16:3],,,,,,,,2,,3,,4,,,,7h[16:3],
,,,,,,,3,,4,,5,,6,,1w5[4:1],{4},,{16},,,{32},8<4[4:1],
,,,,,,,8,,,,,,,,,,,,1,,,,1h[4:1],
,,,,,,,,,,,8,,,,1/5,,2,,3xh[16:1],,,,5/1,,6,,7xh[16:1],,,,1/5,
,2,,3xh[16:1],,,,5/1,,6,,7x,,,,6bxv1<7-4[8:3],,,,5,,,,6,,,,4,,,,3,
,,,3,,,,2v5>3-8[8:3],,,,1,,,,2,,,,7h[8:1],,,,,,,,6,,,,,,,,1,
,,,6-2<8-5[8:3],,,,2,,,,6,,,,4,,,,3,,,,3,,,,2-6>4[4:1],
,,,4,,,,2,,,,1,,,,7bxv4<6-8[8:3],,,,8,,,,7,,,,3,,,,2,
,,,2,,,,1v4>3-8[8:3],,,,2,,,,1,,,,7h[8:1],,,,,,,,6,,,,,,,,,,,,6v1<7-4[8:3],
,,,2,,,,6,,,,4,,,,3,,,,3,,,,2-6-4[4:1],
,,,4,,,,2,,,,1,,,,,,,,3b-7[8:1],,,,1,,,,3-5[8:1],,,,5-1[8:1],
,,,3,,,,1,,,,8,,,,7,,,,7v4[8:1],,,,4<8[6:1],,,,,,,,3h[8:1],
,,,,,,,,,,,2-4[8:1],,,,1-6[8:1],,,,2,,,,1,,,,2-5[8:1],,,,2,
,,,1-7[8:1],,,,1,,,,2,,,,2,,,,,,,,1b-4[8:1],,,,6,,,,1,
,,,8,,,,1-6[8:1],,,,4,,,,1,,,,2,,,,1-5[8:1],{4},,{16},,,{32},4,
,5,,3,,5,,2,,5,,1,,4,,8,
,4,,8,,4,,,1x,2x,3x,4x,8x,1x,2x,3x,7x,6x,5x,4x,7x,6x,5x,4x,{4}3>2p5>4p7<6p1<8p3[1:6]/7q4<5q2>3q8>1q6<7[1:6],
E
