&title=好きだから。
&artist=ユイカ
&first=0.01
&des=ジルコ
&des_5=ジルコ
&lv_5=12+
&inote_5=(82.5){4},,,,5<7[16:3],
4,3<5[16:3],6,
8<6[16:3],6,5>3[16:3],7,
5-7[16:3],2,1-5[4:1],8,
7<4[4:1],8,{2}8V24[4:1]*v5[16:3],
{8}6<1[4:1],5,{4}4,3-5[16:3],3/8,
{8}7<4[4:1],8,{4}1,3-8[4:1],{8}3/4,5,
{4}6-8[16:3],2V83[2:1],2,6,
{8}4-2[16:3],5,{4}6V84[2:1],{8},1,2,3,
{4}3-1[16:3],{8}3/5,4,{4}3-1[16:3],3/4<8[4:1],
8>4[4:1],4<4[2:1],{2}2h[4:1],
1-5[4:1],{8}6-4[16:3],7h[8:1],{4}6<2[4:1],
2V46[4:1],6>6[2:1],{8},,,,4,
3/5h[8:1],{4}B2,4>2[8:1],B8/E8/B7,
{8}1/4-6[8:1],1/4,{4}E3/B2,{2}6V47[4:1]/8-2[32:5],
{8}2,8/2h[8:1],{4}B7,7<5[8:1],B3/E3/B2/7>2<7[4:1],
{2}C,{8}3V57[4:1],2,{4}3/1h[8:1],
{8}3-1[8:1],3/8,{4}3/B6,{8}4-7[8:1]*V25[4:1],3,,,8-2[8:1],
7,{4}8/6>3[4:1],3V57[4:1],8h[8:1],
{8}1,2/8h[8:1],{4}B3,{8}1/4h[4:1],2,3,4,
{4}5-8[32:7],5-2[32:7],{2}5w1[16:3],
{8}4/7<4[16:3],7/4,{4}C/7V13[4:1],7/3V57[4:1],7,
{8}8-3[16:3],7,{4}8<4[4:1],4>8[4:1],8,
{8}4<8[4:1],4h[8:1],,,4>8[4:1],4,{4}4/C,
{8}7V13[4:1],7h[8:1],,,8V64[4:1],8,{4}8/C,
{8}2<7[16:3],2/5,{4}C/2>6[4:1],2/6V42[4:1],2,
{8}1-6[16:3],2,{4}1q5[4:1],5>1[4:1],1,
{8}5>1[4:1],5h[8:1],,,5<1[4:1],5,{4}B4/E4/A4,
{8}2V86[4:1],2h[8:1],,,1V35[4:1],1,{4}1h[8:1],
{8}8<4[4:1],8h[8:1],,,{4}1>5[4:1],5-1[8:5],
{1}7h[4:3],
{4}Cf,{8}7,8,{2}1-5[8:1],
{4}E8,{8}4V68[4:1],2,{2}8v5[16:3],
E2/B1/6-1[8:1],{4}E1/A8/5-2[8:1],B6,
{2}8<1[4:7],{96}B2,E2,{16},,,{64},,{96},{4}4,
{96}E1,A8,{16},,,{64},,{96},{4}C,{96}B5,E6,{16},,,{64},,{96},{4}E7,
{2}5>6[4:7],B3/E3,
{96}D8,E8,{16},,,{64},,{96},{4}E2,{8}E5/A4,B3,{4}B1,
{8}4,3,{4}2h[4:1],{8}3-1[8:1],4,{4}5-8[16:3],
5-2[16:3],7-4[16:3],,1h[8:1],
{8}5,6,{4}7h[4:1],8-6[8:1],8/2h[16:23],
{1}6h[32:39],
{16},,,,5b/3b-8[8:1],7b/2bh[16:3],,,{4}3V57[4:1],7V13[4:1],
8-6>5[16:3],{8}8,4,{4}3v5[16:3],7V16[4:1],
6<4[32:13],5,3h[4:1],{8}5-7[8:1],6/4,
{4}3V15[4:1]/5-3[8:1],5V71[4:1],1V37[4:1],7V53[4:1]*V13<7[2:1],
{8},,,,5<1[4:1],3,{4}1V75[4:1],
5>1[4:1],1>4qq5[8:5]*<6pp5[8:5],,,,2h[4:1],
{8}3-1[8:1],{16}4,5,3,,,6,
8>4[4:1],5,{8}5,{4}4V28[4:1],8V64[4:1],4>8[4:1],
{8}7,{16}6,6,{8}5-8[16:3],5h[8:1],,,5-2[16:3],5,
{4}5/1-6[16:3],1/3-8[16:3],{8},,6v1[32:5]*V82[4:1],7/5,
{4}6V42[4:1],6,{2}6b-1b[32:15],
5b-2[32:7],3xh[4:3]/7h[4:3],
E
