&title=Signal
&artist=rejection (feat. Such)
&first=-0.10700001
&des=Hakusei
&des_5=Hakusei
&lv_5=13+
&inote_5=(175){4},,,,{1}1q8<1[2:3],
,8q1[8:7],
{16},,,,,,,,2,1,{8}2,{4}8/3-8[8:1],
6h[8:1],6h[8:1]/1-5[8:1],6h[8:1],4h[8:1]/6-1[8:1],
4h[8:1],3h[8:1]/8-4[8:1],3h[8:1],{8}2,2,
{16}3,5,4,5,4,6,4,5,3,5,4,5,4,6,4,5,
{4}4w8[8:1],4,{2}Cfh[2:1],
{4},1/2,8/3,4/5-8[8:1]*-2[8:1],
{8}5x,,,2x,{4}1x-5>3[4:1],1/8,
7x-4v1[4:1],{8}2,2h[8:1],,,{4}3-8[8:1],
3/5-1[8:1],5/2-6[8:1],2/8w4[8:1],Cf,
6h[4:1],4,4/2,{8}1/7,6,
{4}4/5q1<6[16:7],{8}3,3x,,2h[8:3],,5,
{4}4x<7[8:1],{8}3,2,1,8h[4:1],,,7x,
7,1,8,2,2,{4}1-5[8:1]/7-3[8:1],
{2}1x/7x,{4}5/3h[4:1],E7/D7,
{8}8h[8:3],,,1,{4}1,5/2h[4:1],
E8/D8,{8}3,3,{4}B4/B2,5h[1:1],
B6/E7/A6,B1/E1/A1,B4/E5/A4,Cf,
{8}3/6,3,3/8,3,3/5,3,3/7,{16}8,1,
{8}8,8,8/2,8,4/8,{16}3,7,2,6,1,5,
{1}8bh[2:3],
{8},,,,,,,7<5[8:1],
7,8,,2>4[8:1],2,1,,5<7[8:1],
5,4,,3>1[8:1],3,4,,7-3[8:1],
7,7,,1-5[8:1],1,1,,6-2[8:1],
6,6,,4-8[8:1],4,4,{4}7h[4:1],
{8}2,4/3,7,6/5,1,3/4,{4}8b,
{8}7,{16}7,8,{8}6,{16}6,5,{8}6,6,{4}6b/4b,
{16}3,6,5,6,2,5,4,5,1,4,3,4,1,8,1,8,
{4}1qq7[4:1],7>3[4:1],5,5-8[8:1]*-1[8:1],
5b,Cfh[2:3],{8},,,,,,,,,,,,8<4[4:1],
8,{4}4<4[2:1],{8}3,3,,5,
{4}5>1>5[2:1],{8}6,6,{2}5<1[4:1],
{4}5b,{8}2-6[8:1],6-2[8:1],2,7,8-6[8:1],8-4[8:1],
,,{4}5-1[8:1],5/1-5[8:1],{8}2,2,
{4}2b,{8}4,4h[8:3],{4}B3/E3/A3,E8/A7/D8,
{8}6,6,4,5,{4}5-1[8:1],5/B3/E4/A3/E3,
2b/8,{8}6/1,{16}7,8,{8}7,{16}2,1,{8}2,{16}6,4,
{8}5,{16}3,4,{8}2,{16}7,8,6,1,{8}7,8/1,1/8,
2/5,{16}3,4,{8}3,{16}6,5,{8}6,{16}2,1,{8}3,{16}7,8,
{8}6,6,{16}4,5,3,5,2,5,1,5,{4}8h[8:1],
8b-4[8:1],{8}8/1,{16}2,2,{8}5,{16}7,8,{8}6,6,
{16}4,5,4,5,{8}3,3,{16}6,5,7,4,{8}8,8,
{1}1-7-2-6-3-5b[8:11],
{8},,,,,,,,5/2-6[8:1],
1,2/6,7,{4}8-4[8:1],{8}8-6[8:1]/2-6[8:1],3,
{4}2>4[8:1]/8q4[8:1],2/8,{8}5,5,{4}4b/6b,
{8}7-1[8:1]/2-6[8:1],6,{4}2/7V53[4:1],7,{8}1,1,
{4}1p5[4:1],5>1[4:1],7-3b[8:1],7b,
{8}2-8[8:1]/5-8[8:1],3,{4}5/2-6-4[4:1],2,{8}7-3[8:1],8,
7/4-1[8:1],5,4/7,7,8,8,{4}7b/1b<5[4:1],
5>1[4:1],8,{8}7,7,2,8,
,1/2,1/2,8,{16}1q5[8:1]/7p3[8:1],6/2,{8}5/3,{4}1b/7b,
{8}7-1[8:1],6,4-8[8:1]/7v5[8:1],3,{4}7/4>1[8:1],{8}4/6,6,
7-1[8:1],1p5[8:1],7,2,3,3,{4}2b/4b,
{8}2v5[8:1]/8p4[8:1],1,{4}2/8V63[4:1],8,{8}2>5[8:1]*<7[8:1],1,
{4}2b,6bv1[8:1]*-4[8:1],6b,2b/8b,
{8}2-8[8:1],3,5-1[8:1]/2v4[8:1],6,{4}2/5<8[8:1],{8}5/3,3,
2-8[8:1],8q4[8:1],2,7,6,6,7/5>7[2:1],4/6,
{4}3b/5b,{8},,,,1,1,
{2}1>6[4:1],8-4[8:1],
{1}Cf,
{4},,,,,,,,,,,,,E6,
E5,E4,
,E6,E5,E4,
,E6,E5,E4,
,E8,E1,E2,
{1}3qq3pp3b[2:3],
,8<6-2>4[2:3],
,1-5[2:3]*-5[2:3],
,3qq2>5[4:5],
,5/4>7[4:3],
{4}B5,E7,A8,1h[1:1],
,,,5,
{2}5,2-7-4-1-5[4:7],
{1}8h[4:7],
{4},,,3,
{2}3>8[2:1],8<5[2:1],
5>2[2:1],{4}1,8,
{1}7h[1:1],
{4}8,1,2<5[4:3],3h[1:1],
,,,5,
{2}5h[2:1],1,
{1}5h[2:3]/2>8[1:1],
{4},,1,1,
{2}2-7[2:1],7-4[2:1],
4-1[2:1],1,
{4}8b,8,7,7,
6,6,{16}5,4,{8}5,3,3,
{4}2-5[8:1],6h[8:1],1-4[8:1],6h[8:1],
8-3[8:1],6h[8:1],{16}5,4,{8}5,3,3,
2-6[8:1],2,1-5[8:1],1,8-4[8:1],8,7-3[8:1],7,
{4}1-6[8:1]*-4[8:1],1,{16}5,5,{8}5,4/6,4/6,
2,3/4,7,6/5,{16}2,1,2,1,3,8,3,8,
4,7,4,7,5,6,5,6,{32}5,4,3,2,1,8,7,6,{8}5/1bx,1bx,
,,{4}4/3,5/2,1/8-5[8:1]*-3[8:1],
{8}8x,,,3x,{4}4x-8>2[4:1],4/5,
6x-1v4[4:1],{8}3,3h[8:1],,,{4}2-5[8:1],
2/8-4[8:1],8/3-7[8:1],3/5w1[8:1],Cf,
{8}7,7,1,1,5,5,3,{16}3,4,
{8}3,3,3/6,3,3/1,3,{16}3,7,2,6,
{1}1bh[8:13],
E
