&title=花を唄う
&artist=シノ
&first=0
&des_5=花は散っても、愛してる
&lv_5=13+
&des=花は散っても、愛してる
&inote_5=(115)
{1},
||Intro
{24}25,,5,3,,46,,,7h[24:4],,,8,8-4[24:2],,,1,,,8/2b,,,,,,
||Theme
{24}25,,3,4,,4,2,,2,8,,8,1h[24:2],,6,8,,7-2[24:2],1,,1,,,3b,
{24},,,4,,4,8,,8,2,,,16,,7,8,,,15,,2,4,,,
{24}46,,7,5,,6,4,,5,4,,4,2,,4,6,,6-3[24:2],2,,2,,,8b,,
{24},,1,,1,5,,5,7,,,68,,1,7,,,3,,3,5,,,
||Verse
{24}4x^2[24:2],,,5,,,6,,,,,1,8-5[24:2],,,1,,,3,,,,,2h[24:3],
{24},,8,,,,1v8[24:2],,,7,,6qq3[24:6],,,,,,2,2x,,,1,,,
{24}8^6[24:2],,,1,,,2,,,,,5,4qq2[24:3],,,6,,,8,,8h[24:1],,,,
{24}3,,4,2,,,5,,,1v6[24:2],,6,,,6,,,,7,,4,7,,,
{24},,2h[24:3],5h[24:2],,,{16}36,,47,47,{24},,8,5-2[24:2],,,8,,,7b,,,
{24}1,,5,3,,5p7[24:3],1,,5h[24:3],,,,,,,6xqq4[24:3]*pp8[24:3],,,6,,,,,,
{24},,,4x/7x,,,25,,6,1,,,7p2[24:3],,,2,,,3b-8[24:2],,,4,,,3/6-1[24:2],
{24},,,,,3/6,,,,,,2v4[24:3]/7^2[24:3],,,,,,2b/7b,,,,,,
||Pre-Chorus
{24}4x,,7,4,,1,4,,8,4,,2,4h[24:2],,8h[24:3],,,1,,,7,1,,6,
{24}2x,,6,8,,6,1,,6,7,,6,1h[24:2],,4h[24:3],,,3,,,2h[24:3],,,1,
{24}3,,8,2,,7,1,,6,8,,5h[24:6],7,,6,,,4bx,,,3,4,,3h[24:4],
{24}1b,,,4h[24:4],,1b,,,3h[24:4],1b,,5h[24:4],1b,,,8,,6,1,,7,2,,8,
{24}3x,,1,3,,7,3,,1,3,,8,3h[24:2],,7,,,2h[24:3],,,8,1,,6,
{24}5x,,8,1,,6,5,,8,1,,6,5h[24:2],,7h[24:3],,,,5-1[24:3],,8,5x,,,
{24}7,,,,,,2-6[24:3]/7-3[24:3],,,18,,,27,,,,,,,,4,5,,3,
{24}6,,,27,,27,,,8,1,,1,8,,,,,B2/B3/B6/B7,Chf[128:1],,,,,,
||Intro-Callback
{24}24,,5,3,,46,,,7h[24:4],,,8,8-4[24:2],,,5>8[24:3],,,8b>4[24:3],,,6,,,
||Chorus
A
{24},,,,,,8h[24:2],,6,8,,,1-5[24:2],,3,1,,1,8,,,6,,5,
{24}4h[24:3],,,3V14[24:4]*pp4[24:4],,,2,,,3>6[24:3],,,,,,7b,,,5h[24:2],,,,,,
{24}4v1[24:2],,6,3,,8,4,,,6,,28,,,3,1,,8,2,,17,,,,
{24}1qq7[24:2],,6,3,,7,1xpp3[24:2],,8,2,,6,1x,,8h[24:1],,,1h[24:3],7h[24:2],,,2bV84[24:4]/6b,,,
{24}5,,2,6,,7h[24:1],{16},,2h[16:2],8h[16:2],,1,1,7,,6h[16:1],4,5,
{12}3b/4,2,1,8b/6,5,4,{16}3b/2,,1q6[24:2],,2,,7^4[24:2],,
{16},,78,,,,2bh[24:5]/3bh[24:5],,,,24,,{24}1q4[24:6]/5,,,2,,7,
{24}6hx[24:5],,,,,,,,,8,,4,{16}7^2[24:2],,2v4[24:2],,7,,,,
||Chorus
B1
{16}1h[16:4],,,,4>5[24:4],,,,45,,,,7-3[24:2],,6,,
{16}2-8[24:2]/7,,1,,2/5h[16:6],,7bx^2b[24:2],7bx,,,,,{24}4x-1[24:2],,,3,,6,
{16}4,,2/7-4[24:2],,1,,7/2-7[24:2],,3,,24,,5,,7h[16:2],,
{16}1h[16:2],,3h[16:2],,5h[16:2],,7h[16:2],,1v6[24:2]*v4[24:2],,3,,,,,,
{24}35,,4,8,,5,1,,,48,,37,,,1,6h[24:3],,,7b,,,1,,2,
{16}3h[16:2],,4,,1,,2-6b[24:2],,4h[16:2],,2b,,8,8,{24},,1,
{24}6,,2,6,,3,6,,4,6,,5,6w2[24:2],,7,6,,8,6b,,,,,,
{24}8,,7,1,,2,8-4[24:2],,7,1-5[24:2],,2,8<5[24:2],,,1>4[24:2],,,8w4[24:2],,,1,,,
||Chorus
B2
{16}8b,,,,2bh[16:2]/6bh[16:2],,,,7h[16:2]/8h[16:2],,,,2-5-3[24:3],,3,,
{16}6-1-7[24:3],,7p3b[24:2],,,,2b,,,,25,,78,,,,
{16}1h[16:2],,B3/E4,,5h[16:2],,B7/E8,2h[16:2],,B3/E4,8h[16:2],,B6/E6,,3xV15[24:3],,
{16}8,,7V15[24:3],,2,,3V15b[24:3],,8x,,7V15b[24:3],,2x,,3-6[24:2]*-7[24:2],,
{16}2,,3-8[24:2],,2,,3^6b[24:2],4,,2x,,,2pp4[24:2],2,,6,
{16}6^1[24:2],,3,,2bw6[24:2],,3,,2b,,4x/8x,,37,,46,,
{24}7x-5[24:2],,5,7x-4[24:2],,4,7x-3[24:2],,3,7x-2[24:2],,2,7x-1[24:2],,1x,7x,,,,,,,,8,
{24}2^5[24:2],,1,7-4[24:2],,8,2-6[24:2],,7,1,,2,8bxqq6[24:2]*pp2[24:2]/Cf,,,7,,,8bw4[24:2]*w4b[24:2],,,1x/7x,,,
||Theme-Callback
{24}8b/Cf/B2/B6,,,,,,4,,4,6,,6,1h[24:2],,6,8,,7-2[24:2],1,,1,,,3b,
{24},,,4,,4,8,,8,2,,,16,,7,8,,,15,,2,4,,,
{24}46,,7,5,,6,4,,5,4,,4,3,,4,5,,6-3[24:2],2,,2,,,1b,,
{24},,2,,2,5,,5,8,,,17,,2,8,,,3,,4,2,,,
||Outro
{24}1h[24:2],,5h[24:3],,,3h[24:3],,,4h[24:1],2h[24:3],,,5h[24:2],,3h[24:3],,,6h[24:1],4h[24:3],,,7,,,
{24}8h[24:2],,5h[24:3],,,6h[24:3],,,4h[24:1],7h[24:3],,,3h[24:2],,6h[24:3],,,4h[24:1],5h[24:3],,,4,,,
E
