&title=Collapsar
&artist=BlackY
&first=-0.957
&lv_5=14+
&des_5=Hsuan
&inote_5=
(188){4},,,,,,,,,,,,,,,,{1}5<8[4:7],
,1>4[4:7],
{2},,6h[2:1],
3h[2:1],
5h[2:1],4h[2:1],
6,3,
5,4,
{4}6,3,5,4,
6,3,5,4,
7,2,8,1,
7,2,8,1,
{8}8,7,6,5,4,3,2,1,
5,6,7,8,1,2,3,4,
6,4,5,3,4,6,3,5,
1,2,3,4,{16}5,6,7,8,1,2,3,4,
{1}5-1[4:7],
{8},,,,,,,,5<8[4:3],
6,5,6,1,2,3,4,
4>1[4:3],3,4,3,8,7,6,5,
8<5[4:3],7,8,7,4,3,2,1,
1>4[4:3],2,1,2,5,6,7,8,
5-1[4:3],6,7,8,2,3,4,5,
4-8[4:3],3,2,1,7,6,5,4,
1-5[4:3],2,3,4,6,7,8,1,
8-4[4:3],7,6,5,3,2,1,8,
5,6,5<8[2:1],6,4,3,2,1,
1,2,1>4[2:1],2,8,7,6,5,
5-8[4:3],6,7,6,4,3,2,1,
1-4[4:3],2,3,2,8,7,6,5,
,,{4}5/4,6/5,4/3,
{8}6/3,,,7/2,,,{4}6/3,
{1}2h[4:3]/7h[4:3],
1h[1:1]/8h[1:1],
{4},3,3,3,
7,7,7,7,
4,4,4,4,
6,6,6,6,
2,2,2,2,
6,6,6,6,
3,3,3,3,
5,5,5,5,
{8}3,2,3,4h[4:1],,5,6,7h[4:1],
,2,3,4h[4:1],,8,7,6h[4:1],
4,5,4,5,3,4,5,6h[4:1],
,2,3,4h[4:1],,8,7,6,
5,6,5,6,4,3,2,1h[4:1],
,2,3,4h[4:1],,7,6,5,
4,5,4,5,4,5,4,5,
{16}5/4,,,5/4,,,{8}3/6h[4:1],{16},,,,1,2,3,4,
5,6,7,8,5,6,7,8,1,2,3,4,5,6,7,8,
{4}5/4,6/5,4/3,2/1,
{8}3/2,,,3/4,,,{4}6/5,
{8}5/4,,,6/5,,,4`3,6`5,
,8`7,,2`1,,4`3,,5`4,
,,{4}5/4,6/5,{8}4/3,7/6,
,6/5,,5/4,,4/3,,,3/2,
5/6,4/3,6/7,{16},,7,6,1,2,3,4,
8,7,6,5,4,3,2,1,4,3,2,1,8,7,6,5,
,,,,{4}6/5,5/4,4/3,
2/1,3/2,2/1,8h[4:1]/7h[4:1],
,6/5,5/4,4/3,
2/1,4/3,8/7,2/3,
{16}5,4,5,4,5,4,5,4,5,4,5,4,5,4,7,6,
5/4,3,2,1,8,7,6,5,8,7,6,5,4,3,2,1,
{4}8/7,{8}6/5,7/8,,8/1,,1/2,
,7/8,,6/5,,4/3,,,6/5,
6/5,5,6/5,,2,,8<5[4:1],
{16},,4,3,{8}2,1,,1,2,3,
4/3,4/3,4,4/3,,7,,6`5,
,4,,3,,2,,,2/1,
2/1,1,2/1,,6,,4>1[4:1],
{16},,8,7,{8}6,5,2,3,4,5,
4/5,4,4/5,5,,4,5,4,
{16}6,5,6,5,{24}6,5,6,5,6,5,6,5,6,5,6,5,,,,{8}4,
4/3,4/3,3,4/3,,2<7[4:1],,7<4[4:1],
{16},,3,2,{8}1,1,,3,4,5,
6/5,6/5,6,6/5,,7>2[4:1],{48},,,5,4,3,,,,,,,,,,,,,{8}5,
,6,,7,,,7/8,
7/8,7,8/7,,6>3[4:1],,6,
,8,1,8,,3<6[4:1],,7>2[8:15],
,,,,,,,,,,,,,,,,3,
3,3,3,5,5,5,5,
4,4,4,4,6,6,6,6,
{16}5,6,5,6,5,6,5,6,4,5,4,5,4,5,3,4,
3,4,3,4,3,4,3,4,5,6,7,8,1,2,3,4,
{4}5b,{8}3,4,,3/4,,5,
,3/2,4,5,6,7,6,5,
{16}6/7,,,5,,,{8}4,3,6,2,{16}5,4,
{4}3/2,1/8,7/6,5/4,
{8}6/3,{16}2,1,2,1,2,3,2,3,4,3,5,4,5,4,
5,6,4,5,6,4,5,7,6,8,7,8,7,8,,1,
{4}1/8,{8}6/5,4/3,,1/2,,8/7,
,2/7,,1>4[16:3]/8<5[16:3],,,,,{4}6/3,
{8}6,5,,6/5,,4,
,6/7,5,4,3,2,3,4,
{4}3/2,{8}3,4,,4/3,,5,
,3/2,4/5,6/7,4/3,2/1,7/8,6/5,
{16}1,3,2,1,7,6,5,2,3,4,3,2,5,4,5,6,
5,4,8,7,1,2,3,4,5,4,3,5,6,7,8,7,
{8}6,{16}6,4,5,3,5,3,5,3,5,3,,,{8}3h[8:3]/5h[8:3],
,,,6/4,,6/4,,5/4,
{16},,,4,5,4,5,4,5,4,5,4,5,4,5,4,
5,4,{24}5,4,5,4,5,4,5,{48},{16}4,{32}5,6,7,8,1,2,3,4,5,6,7,8,1,2,3,4,
{16}5,6,7,8,4,3,2,1,4,3,2,1,7,8,7,8,
1,2,3,4,8,7,6,5,1,2,3,4,1,2,3,4,
5,6,7,8,5,6,7,8,5,6,7,8,2,1,2,1,
8,7,6,5,3,4,3,4,6,5,6,5,1,2,3,4,
5,6,7,8,5,6,7,8,2,3,6,7,3,4,7,8,
2,1,2,1,5,6,7,2,8,7,6,3,6,4,6,4,
5,6,7,8,4,3,2,1,6,7,1,2,1,6,7,8,
2,3,2,3,2,4,2,4,2,5,2,5,8,7,6,5,
4,3,2,1,3,2,1,8,2,1,8,7,8,7,8,7,
8,1,2,3,7,6,5,4,1,2,3,4,8,7,6,5,
4,5,6,7,5,4,3,2,4,5,6,7,1,8,1,8,
7,6,5,4,3,4,3,4,3,4,3,4,2,3,4,5,
{8}6h[4:1],5,3h[4:1],4,7h[4:1],6,2h[4:1],3,
8h[8:3],7,6,1h[8:3],2,3,,8/1,
{16}3/7h[16:3],,,3,,,{8}6/2h[16:3],{16},6,,,{8}6/3,6/3,
{16}2,7,2,7,2,7,2,7,{32}1,8,1,8,1,8,1,8,1,8,1,8,1,8,1,8,
{2}1h[8:3],8h[8:3],
2h[8:3],7h[8:3],
{8}3h[8:3],5,,,6h[8:3],4,,,4h[8:3],
5,,,5h[8:3],4,,,5,
5h[4:1],,,4,4h[4:1],,,6,
6h[4:1],,,3,3h[4:1],,,7,
7h[4:1],{4}6,{8}2,2h[4:1],{4}3,
{8}8,8h[4:1],7,6,1,1h[4:1],2,3,
{2}5h[2:1],{8}4h[8:1],3h[8:1],{16}2h[8:1],,,3,
1,3,1,3,1,3,1,3,1,3,1,3,1,3,{8}1h[8:1],
{16},8,1,8,1,8,1,8,1,8,1,8,1,1,1,1,
1,2,3,4,2,3,4,5,3,4,5,6,4,5,6,7,
2,8,7,8,7,8,7,8,{24}7,8,7,8,7,8,7,8,7,8,7,8,
7,8,7,8,7,8,{16}7,8,7,7,8,7,6,5,6,5,4,3,
4,3,2,1,2,1,8,7,6,5,4,3,2,1,8,7,
{8}3/6,6/3,3/6,7/2,{32}1,2,3,4,5,6,7,8,1,2,3,4,5,6,7,8,
{4}1/2>5[8:1],2/3,{16}6/7,,,5/6,,,{8}7/6,
,2,{16}3,2,3,6,5,4,2,3,4,5,6,6,
5,8,7,6,8,7,6,7,6,5,6,5,4,6,5,4,
3,2,5,4,3,4,3,2,6,5,6,4,3,2,1,2,
1h[16:3]/7h[4:1],,,,,1,7,8,1,7,8,1,7,8,1,7,
8,1,7,8,1,8,1,2,7,8,7,6,7,6,5,6,
5,6,5,4,5,4,3,4,3,4,3,2,1,2,1,8,
7,8,7,8,7,8,{8}1/7h[4:1],,2-6[8:1],,2/8h[8:3],
,,1,6/7-3[16:1],,7/8,,7/2,
7,{16}7,6,7,6,7,5,7,5,4,4,3,3,2,2,
,,,,{8}1/8,3/2-6[16:1],,2/1,,2/7,
2,{16}2,3,2,3,2,4,2,4,5,5,6,6,7,7,
,,5,6,5,4,3,2,,,4,3,4,5,6,7,
8h[8:1]/2h[8:1],,,7h[8:1]/1h[8:1],,,{8}5h[8:1]/3h[8:1],{16},4h[16:5]/6h[16:5],,,,,,,1,
1,2,2,3,3,4,4,5,5,6,6,7,7,8,8,
7,7,6,6,5,5,4,4,3,3,2,2,{32}3,4,5,6,7,8,1,2,
{2}3h[2:1],5h[2:1],
{4}4h[2:1],6,6h[2:1],4,
{8}2h[2:1],4,4,4,7h[2:1],5,5,5,
1h[2:1],3,3,3,8h[2:1],6,6,6,
{16}2,1,2,1,2,1,2,1,7,8,7,8,7,8,7,8,
5,6,5,6,5,6,5,6,3,4,3,4,3,4,3,4,
{1}3/7>2[4:11],
{4},,,,,,,,,,6,
5,
6/4,{8}3,4,,3/5,,6,
,2,3,4,5,6,7,6,
{16}7h[8:3],,,5h[16:5],,,,,{8}4h[4:1],2h[4:1],,,{4}3/2,
1/8,7/6,5/4,
2h[4:1],4h[4:1],{16}5h[16:3],,,6h[16:3],,,{8}3h[8:1],
{4}5h[4:1],4h[4:1],{2}7h[4:1],
{8}3h[16:3]/6h[16:3],,,5h[16:3]/4h[16:3],,,,4/7,
,5/2,,7/2h[8:5],{32}6,7,8,1,3,4,5,6,7,8,1,3,4,5,6,7,
{4}8-4[8:1],{8}8b,3,,3/4,{16}7,8,{8}1-4[8:3],
,1,8,7,6<1[4:1],5,4,3,
{4}2-6[8:1],{8}2,7,,7/6,{16}2,3,{8}4-1[8:3],
,4,5,6,7<4[4:1],8,1,2,
{16}2,3,2,4,2,5,2,6,7,6,8,6,1,6,2,6,
3,4,3,5,3,6,3,7,3,7,8,7,1,7,2,7,
{64}3,,,,,,,,,,,,,,,4,{8}3h[8:3],6h[4:1],,,,5<8[8:1]/4>1[8:1],
,5-1[8:1]/4-8[8:1],,5<8[8:1]/4>1[8:1],,5/4,,,{4}8/1-5[8:1],
{8}1/2,6<1[8:1],,6/5,{16}2,3,{8}4-1[8:3],
,4/3,5,6,7<4[4:1],8,1,2,
{16}3>8[16:3],,,4,,,{8}5,7<4[16:3],6,7,{16}7,8,
{4}1/2-6[8:1],2/1-5[8:1],1/8-4[8:1],8/7-3[8:1],
{16}7/8,4,5,6,8,7,8,6,7,6,7,6,7,6,5,6,
5,6,5,4,6,5,4,5,3,4,2,3,2,3,2,1,
{8}2h[4:1]/8h[4:1],,,7h[32:7]/1h[32:7],,8/2,,8/6,
,3/1,,2/7,{16}8,1,2,3,4,5,6,7,
{4}8/1-5[8:1],{8}1/8,4,{32},,,3,{8}2/1,{16}7,6,{8}4/5,
,5/4,5/6,6/7,3/2,4/5,3/4,2/3,
{16}7,8,7,6,5,6,5,4,3,4,5,4,6,5,4,3,
2,3,4,3,5,4,5,6,5,4,5,6,5,6,7,6,
{8}1h[16:1]/8h[16:1],{16}2,1,2,1,2,1,{24}2,1,2,1,2,1,{16}2,1,2,2,
3,4,3,4,3,4,5,6,7,8,,8,7,8,6,5,
{8}7h[4:1],{16}5,3,4,2,3,1,{24}3,1,3,1,3,1,,,,{8}4h[8:3]/8h[8:3],
,,,7h[4:1]/5h[4:1],,,,6-2[4:5],
{16},,1,3,1,3,1,3,1,3,1,3,1,3,1,3,
{24}1,3,1,3,{48},{16}1,3,1,{32}3,4,5,6,7,8,1,2,3,4,5,6,7,8,1,2,3,4,5,6,
{8}7/2,{16}4,3,2,1,8,7,6,7,3,2,1,5,6,7,
8,1,2,3,4,8,7,6,5,8,1,2,3,4,5,6,
{8}7/2,{16}8,7,6,7,5,4,3,2,1,8,7,6,5,6,
7,8,7,8,7,6,7,8,7,8,1,2,3,4,5,6,
{8}7/2,{16}1,2,3,4,5,6,7,6,5,8,1,8,1,2,
3,4,5,4,3,1,2,3,8,7,6,4,3,5,3,4,
7/2,3,4,5,6,5,4,3,2,1,6,7,8,3,2,1,
8,1,8,1,2,1,8,7,6,7,6,1,2,3,4,8,
{8}7/2,{16}6,5,4,3,2,1,8,1,6,7,8,4,3,2,
1,8,7,6,5,1,2,3,6,7,1,2,3,4,5,6,
{8}7/2,{16}5,6,7,4,3,2,1,8,7,6,5,4,3,8,
7,6,5,6,5,6,7,6,5,6,2,3,4,7,6,5,
{8}3,6,5h[4:1],4,4h[4:1],5,6h[4:1],4,
3h[8:3],6,7,7h[8:3],{4}3,{8}4,5,
{16}6/5,,,4/5,,,{8}4/3,{16},4/5,,,{8}4/7,5/2,
{16}2,7,2,7,2,7,2,7,{24}1,8,1,8,1,8,{32}1,8,1,8,1,8,1,8,
{4}2/7<4[2:3],8,1,2,
3,2,1,8,
7/2>5[2:3],1,8,7,
6,7,8,1,
{1}6-3[4:15],
E
