&title=Vitrum
&artist=BEMANI Sound Team "Yvya"
&first=0
&des=鬼方カヨコ
&lv_5=14
&inote_5=(146)
{16}
,,,,,,,,
,,,,,,,,
{16}
45,,2z6[8:2],,7-3[8:1],,,,
,,,,
{24}
1,8,1,
8,,,
{16}
2b,,5/4,,3/6,,7,5,
6,4,5,,3,5,4,6,
{16}
5qq4[16:3],,4,,5/6,,,,
7,,7,5,6,3,4,3,
{16}
5,,3,5,4,5,2,4,
3,5,4,5,
{24}
2,3,4,
6h[8:1],,,
{16}
5h[8:1],,7,5,8,4,1h[8:1],,
4,7,3,6,1-5[8:1],,,,
{16}
6/1b,,7,,6/4,,7,5,
6,4,5,,3,5,4,6,
{16}
5pp4[16:4],,4,,5/3,,,,
2,,2,4,3,7,5,6,
{16}
4,,4,6,3,5,,5,
3,6,4h[8:1],,
{24}
7,6,5,
3h[8:1],,,
{16}
4h[8:1],,2,4,1,5,8h[8:1],,
5,2,6,3,8-4[8:1],,,,
{16}
3/8b,,2,,3/5,,2,4,
3,5,4,,6,4,5,3,
{16}
4qq4[16:3],,5,,4/6,,,,
7,,
3,3,
{24}
8,7,6,
4,3,2,
{16}
1/7b,,6,4,5,3,4,2,
6,4,7,5,
{24}
8,7,6,
3h[8:1],,,
{16}
8,5b,7,3,4b,1,5,8b,
7,4,1b,3,7b-4[8:1],,,,
{16}
3,,3,,3,,3,4,
2h,4,,4,3,,3,,
{16}
6,,6,,6,4,,4,
7h,4,,4,6,,6,,
{16}
53,,53,,53,,4,6,
2h,6,,6,3,,
{24}
3,4,5,
{16}
6,,{24}
4,3,2,
{16}
1/5,5,,1,
{24}
6,5,4,3,2,1,
{16}
4-7[8:1]*-8[8:1],,3,,
{16}
4pp1[8:6],,,,,,,,
,,,,,,
{24}
8,7,6,
{16}
5,,,,2z6[8:3],,,,
7-3[8:1],,,,,,,,
{16}
18,,,2,,2,,2,
4-2[8:1],3-5[16:1],,,,,,,
{16}
6,,6,,6,5,,5,
6-3[8:1],,4,,3,,,,
{16}
2/4,,,1,,1,,1,
7-1[8:1],8-6[16:1],,,,,,,
{16}
3,,3,,3,4,,4,
2-5[8:1],6-4[16:1],,,,,,,
{16}
6/3,,,7,,7,,7,
5-7[8:1],6-4[16:1],,,,,,,
{16}
3,,3,,3,4,,4,
2-5[8:1],,6-3[8:1],,,,,,
{16}
2,,,7,,7,,7,
2-8[8:1],1-3[16:1],,,,,,,
{16}
6,,6,4,5,3,4>1[8:1],,
{24}
2/6,,,
8,7,6,
{16}
5,,6/2,,
{16}
1b,,2,7,3,8,4h[8:1],,
5,2h[8:1],,4,3h[8:1],,7,4h[8:1],
{16}
,6,5h[8:1],,8,6h[8:1],,7,
5h[8:1],,6,4,7,3,8,2,
{16}
1b,,3,5,4,6,5h[8:1],,
6,3h[8:1],,5,4h[8:1],,6,5,
{16}
8b,,7,5,6,4,5,,
36,,
{24}
2,3,4,
6-3[8:1],,,
7,,,
{16}
3b,,,,2,4,3h[8:1],,
8,1h[8:1],,6,8h[8:1],,5,1,
{16}
6,2,4,3,5,2h[8:1],,6,
4h[8:1],,
{24}
7,6,5,{16}
3,,2,,
{12}
6h[12:1],5h[12:1],4h[12:1],
{16}
3,,5,3,
4,1h[8:1],,5,2b-4[8:1],,7b/3b,,
{16}
1,,
{24}
8,7,6,
2,3,4,
{16}
5/7b,7b,
{32}
4b,3,2,1,8,7,6,5,
4,3,2,1,8,7,6,5,
{16}
4/8-4[8:1],,,3,8b,,,,
2,2,5,4,6,5,7h[8:2],,
{16}
,,4,4,6,2,5,2,
{24}
4,5,6,
2,3,4,
{16}
7,7,
5,5,
{16}
8h[8:2],,,,
{24}
5,4,3,
7,6,5,
{16}
2,2,4,4,3,5,4,6,
{16}
5h[8:2],,,,
7,4,8,4,
{24}
1,8,7,
3,2,1,
{16}
6,6,2,2,
{16}
8b,,17,,26,,5,4,
,37,,4,5,3,8b-5[16:1],,
{16}
,8b/1,,,
{24}
2,3,4,6,7,8,
{24}
3,2,1,7,6,5,
2,3,4,5w1[8:1],6,7,
{16}
,,5b,,,,
7,3h[16:1],
6,2h[16:1],5,1h[16:1],
4-1[8:1],,,,
{16}
4bqq6[8:3],,,,,,,,
,,,,4-1[8:1],5,,,
{16}
4bqq7[8:3],,,,,,,,
,,,,4-1[8:1],5,,,
{16}
4/5,,6,,7/1,,2,6,
3,3,7,7,
{24}
1,2,3,
5,6,7,
||
{16}
4/5,,6,,7/1,,2,6,
,3/5,,7,
{24}
1,2,3,
5,6,7,
{12}
8h[12:1],4h[12:1],2p4[48:19],
{16}
6p8[16:5],,,,
,,,,,,,,
||
{16}
4/5,,6,,7/1,,8,2,
,53,,7,1,,26,,
||
{12}
7/4-8[8:1],64,54,
{16}
4h[24:17],,,,
,,,,8h[24:5],,,,
||
{12}
73,63,53,
(292)
{8}
3pp8[12:9]/4h[4:5],,,,
,,,,,,,,
(146)
{24}
5/1b,6/2b,7/3b,4,5,6,
7,8,1,2,,,
{16}
6b,,
{24}
4bq8[16:2],3,2,
{16}
1,,2/4,,
{16}
,,2,8,
{16}
4pp3[16:6],,
{24}
7,6,5,
{16}
4/2h[8:1],,,1h[8:1],,,8,,
||
{16}
,,2,8,
{16}
4V63[16:5],,
{24}
7,6,5,
{16}
4/3h[8:1],,,2h[8:1],,,1,,
{16}
8>5[24:6],,,,5,,7-3[8:1],,
,,7/5-8[8:1],,,,4/5,,
{16}
,,4,4,6,3,4,2,
6>3[8:1],8,7,1,6,,,,
{24}
4b/1,5b/2,6b/3,7,8,1,
2,,,5,,,
{16}
6,,
{24}
4-1[16:2],,,
{16}
3,,5/4,,
{16}
,,6,6,2,5,1,6,
2,4,3,5,1,6,8,7,
{16}
1>4[8:1],,5-1[8:1],,1<6[8:1],,5,,
,,
{24}
4,3,2,
6,5,4,
8bV25[24:5],,,
{16}
,,,,,,7,7,
5>8[24:5],6,4,6,5,,,,
{24}
5b,4,3,2,1,8,
5b,4,3,2,1,8,
{16}
5b,,5,3,4,2,6,1,
{24}
7,6,5,
{16}
2,2,
{24}
7,6,5,
{16}
1,1,
{24}
7,6,5,
{16}
2,2,
{24}
8qq8[16:4],7,6,
{16}
3,3,
{24}
8b,,,,,,
{16}
4h[8:1],,8,5,
{16}
7,4,6,3,7,2,8,2,
{16}
4,3b,4,
2,1b,2,
6,5b,6>3[24:3],
8,7b,8,
6,,,,
{24}
8b,1,2,3,4,5,
8b,1,2,3,4,5,
{16}
8b,,1,4,2,5,3,6,
{16}
2b,4,3,7b,5,6,1b,8,
3,3,7,7,2,2,6,6,
{24}
1b,5,2,6,3,7,
1b,5,2,6,3,7,
2b,6,3,7,4,8,
2b-6[12:1],6,3,7,4,8,
||
{16}
2b>8[1.648##0.412]*>8[1.648##0.412],,,,,,,,
{16}
2b,,,,,,,,
{24}
,,,,,,
{24}
4,3,2,
5,6,7,
||
{24}
2!^3[0.412##0.069],2!^4[0.343##0.137],2!^5[0.275##0.206],2!>6[0.206##0.275],2!>7[0.137##0.343],2!>8[0.069##0.412],
{16}
8bpp5[8:12]/1bqq4[8:12],,,,,,,,
,,,,,,,,
{16}
,,,,,,,,
,,,,,,,,
{16}
7b,,3,5,4,7h[8:1],,5,
6,4,5h[8:1],,3,6,4,,
{24}
4,3,2,7,6,5,
4,3,2,7,6,5,
4-1[8:1],3,2,7,6,5,
4b,,,,,,
{16}
1/8b,,2,5,3,4,2,4,
3,5,4,7,5,6,4,5,
{16}
3-5[8:1],,2,,3>8[8:1],6,,6,
3,,
5,5,
{24}
1,2,3,
5,6,7,
{16}
8/1b,,2,5,4,7,3,6,
5,8,4,7,
{24}
3,2,1,
5h[8:1],,,
{16}
8,6b,2,7,5b,1,2,4b,
8,6,3b,1,2b-5[8:1],,,,
{16}
6,,6,,6,,6,5,
7h,5,,5,6,,6,,
{24}
4,5,4,
6,5,6,
{16}
3,3,,6,
4,5,5,,
{24}
3,4,3,
5,4,5,
{16}
3b-6[12:1],
E
