&title=Secret of my heart
&artist=棗いつき/aran
&first=0.14
&des=編みドーナツ
&lv_5=13
&inote_5=(128){4},,,,8/Ch[4:9],
8,7,7,
6,6,5,5,
{2}4h[4:7],3h[4:1],
5h[4:1],{8}3h[4:1],,,5,
{4}7/6,4/3,6/5,{8}2-7[8:1],3,
6<2<6[2:1],5,{4}2p5[4:1],{8},,,4-6<7v1>2-4b[8:9]*-2<1v7<6-4[8:9],
{1}3h[8:1],
{8},,,B6,B5,B4,{4}B3,
{8}3/4h[8:1],2,3/4h[8:1],2,3/5h[8:1],2,3/5h[8:1],2,
6/4h[8:1],7,6/4h[8:1],7,6/5h[8:1],7,6/5h[8:1],7,
6/4,2,6/4,1,5/3,8,5/3,7,
2<7[8:1],2,6>3[8:1],6,2-7[8:1],2,6-3[8:1],6,
2v5[8:1],1,6v1[8:1],7,4>1[8:1],3,8<5[8:1],7,
1-4[8:1],1,5-8[8:1],5,1-4[8:1],1,5-8[8:1],5,
3v8[8:1],2,7v4[8:1],6,1-5[8:1],2,6qq3[1:1],7,
5,5,6,6,7,7,8,8h[8:3],
,,{4}5,6/4,5/3,
{8}2/4<8[4:1],,,4,{4}5>1[4:1],1q4[4:1],
{8}4,5,{4}6h[2:1],,7>8-4>3[4:1],
,2<1-5<6[4:1],,7<6-2>3[4:1],
,4,5/3,6/4,
{8}7/5>1[4:1],,,5,{4}4<8[4:1],8V64[4:1],
{8}4-2-8[4:1],3,{4}2h[8:5],{8},,,1>4[4:1],
8,7-4[8:1],{4}6,{8}3-8[8:1],,,5<8[8:1],
{4}5,B6/B5/C,4>1[8:1],{8}C/B4/B3,5,
6/8,7/1,{4}2/8-3[8:1],8-5[8:1],{8}1,2,
{4}3>8[8:1],C/B3/B4,7<4[8:1],{8}B8/B7/C,1,
2-6[8:1],8,{4}7-3[8:1],5-1[8:1],{8}1,8,
{4}7>2[8:1],A7,6<1[8:1],A6,
5<8[8:1],A5,4<7[8:1],A4,
{8}3<2[2:1],,,,,,,3,
5/4,6,7/8,1,2/3,4,6/5-2[8:1],7,
{4}5/6-1[8:1],6/5-2[8:1],5/6-1[8:1],6/5-2[8:1],
{8}5/6>3[8:1],7,1-5[8:1],2,{4}4h[4:1],6<2[8:1],
{8}5b-8[8:1],5,3v6[8:1],3,7-2[8:1],7,3v6[8:1],3,
8v5[8:1],8,4v1[8:1],4,6-3[8:1],6,7-2[8:1],7,
4-1[8:1],5,{4}6/4-7[8:1],2-5[8:1],{8}8<5[8:1],7,
5>2[8:1],3,{4}8-6[8:1]*-2[8:1],8<4[4:1],{8}4>2[8:1],2<8[8:1],
8b<5p4>7[4:5],,,,,,,B6,
C,B2h[8:5],,,,,,7,
6-3[8:1],5,{4}4-1[8:1],4-7[8:1],8-3[8:1],
8-5[8:1],4-7[8:1],4-1[8:1],6-1[8:1],
{8}5-2[8:1],4,6-1[8:1],7,5-2[8:1],4,6>3[8:1],7,
{4}1-5[8:1],4h[4:1],6<2[8:1],{8}5-8[8:1],5,
{4}3-8[8:1],{8}4-7[8:1],5,3-8[8:1],2,6<1[8:1],5,
2>5[8:1],3,{4}8-3[8:1],4-2-8-6[8:3],{8}8,6-4b[8:1],
{1}4-2-8-6-4b[1:1],
{8},,,B6,B5,B4,{64}B3,,,,,,,,,,,,,,,B7,
{1}Ch[1:7],
{2},4h[4:1],
{1}3h[4:3],
{4}2h[2:1],{8},,,,1,2,
3,4h[8:11],,,,,,,,,,,,,B4,
B3,
,,,,,,B3,B2,
,,{4}7h[4:1],{8}6h[4:1],,,5,
{2}5<8[8:1],{8}5<8[8:1],,,5,
8-5[8:1],5-1>1[2:1]*w1[8:1],,,,,,3,
{2}4>1[8:1],{8}4>1[8:1],,,4,
1-4[8:1],4-8<8[2:1]*w8[8:1],,,,,,4,
{4}5<8[8:1],B6/B5/C,4>1[8:1],C/B3/B4,
8<5[8:1],C/B8/B7,1>4[8:1],C/B1/B2,
{8}6pp1b[2:1]/5qq2b[2:1],,,,,,,3,
4/5,6,7/8,1,2/3,4,5/6,7,
{4}8/Cfh[1:2],8,7,7,
6,6,5,5-8b[8:1],
{8},,3>8[8:1],3,7<4[8:1],7,2<7[8:1],2,
6>3[8:1],6,{4}7>3[4:1],{8}3x>7b[4:1],,,4,
5,6h[8:3],{4}B8/B7,B3/B4,{8}2-6[8:1],1,
7-3[8:1],8,{4}5-1[8:1],1-3-5-1[4:1],{8}8,7,
6<2q3<6[4:5]*<2q3<6[4:5],,,,,,,B6,
C,B2h[8:5],,,,,,6,
7-2[8:1],8,{4}1-4[8:1],1-6[8:1],5-2[8:1],
5-8[8:1],1-6[8:1],1-4[8:1],7-4[8:1],
{8}8-3[8:1],1,7-4[8:1],6,8-3[8:1],1,7>2[8:1],6,
{4}4-8[8:1],1h[4:1],7<3[8:1],{8}8-5[8:1],8,
{4}2-5[8:1],{8}1-6[8:1],8,2-5[8:1],3,7<4[8:1],8,
3>8[8:1],2,{4}5-2[8:1],1-3-5-7[8:3],{8}5,7-1b[8:1],
{4}1-3-5-7-1b[1:1],B1,B3,B5,
{8}B7h[2:1],,,2,3,4,{4}5h[4:1],
{8}8-6[8:1],4,4/8-3[8:1],5,5/8-6[8:1],4,4/8-3[8:1],5,
5>2[8:1],6,1<6[8:1],8,5-1[8:1],4,3<6[8:1],2,
8-5[8:1],8,4-1[8:1],4,7v4[8:1],7,8-3[8:1],8,
6-3[8:1],6,7-2[8:1],7,4-7[8:1],4,3-8[8:1],3,
6,5,4/1-3[8:1],5,5/1-6[8:1],4,4/1-3[8:1],5,
5/1-6[8:1],4,4<7[8:1],3,8>3[8:1],1,4-8[8:1],5,
6>3[8:1],7,1-4[8:1],1,5-8[8:1],5,2v5[8:1],3,
1-6[8:1],8,3-6[8:1],3,2-7[8:1],2,5-2[8:1],4,
6>5-1>2b[4:7],6,7,7,6,6,7,7,
6,6,7,7,6,6,7,7,
E
