&title=just a moment
&artist=DREAMWARE
&first=0
&des=Genetically altered.
&clock_count=4
&lv_5=14+
&inote_5=(190)
{4},,,,
{16}4>5[8:28],,,,,,,,,,,,2>4[8:2],,,,
{16},,,,,,,,,,,,8>2[8:2]*>2[8:2],,,,
{16},,,,,,,,,,,,,,,,
{16}4<6b[8:2],,,,,,,,,,,,,,,,
{16}8<1[8:28],,,,,,,,,,,,6<8[8:2],,,,
{16},,,,,,,,,,,,4<6[8:2]*<6[8:2],,,,
{16},,,,,,,,,,,,2>4b[8:2],,,,
{16},,,,,,,,7,,,6,,,5,,
{16}1x/5b,,4,4h[8:1],,,3,3h[8:1],,,8,,2,8,1,7,
{16}1h[8:1],,7,7h[8:1],,,4,4h[8:1],,,5,,3,5,2,4,
{16}2h[8:1],,6,,78,,7,8,7,8,6h[8:1],,3,5,3,5,
{16}1h[8:1],,8,,27,,{24}3,4,5,{16}7,7h[16:3],,,{24}1,2,3,7,6,5,
{16}8,,6,6h[8:1],,,5,5h[8:1],,,6,4,7,3,8,2,
{16}8h[8:1],,2,2h[8:1],,,4,4h[8:1],,,3,5,2,6,1,7,
{16}1,,8,,27,,6,5,6,5,7h[8:1],,3,4,3,4,
{16}2/5h[8:6],,,,1,,,,8-4[8:1],,,,8b,,,,
{16}7h[8:1],,,7h[8:1]/8,,,71,,1b,7,1,7,2,6,2,,
{16}3h[8:1]/5,,,3h[8:1]/4,,,35,,5b,4,5,4,6,3,6,,
{16}4/7-4[8:1],,47,,4v6b[16:3]/7,,,,2b-8-6-4[8:3],,,,2,,4x,,
{16},,,,1x-7v5[8:3],1x,1x,,3b,,,3h[16:3],,,,,
{16}4h[8:1],,,4h[8:1]/7,,,45,,3b,5,3,6,3,7,3,,
{16}7h[8:1]/5,,,7h[8:1]/3,,,71,,6b,8,6,1,6,2,6,,
{16}5/2-5[8:1],,52,,5v3b[16:3]/2,,,,7b-1-3-5[8:3],,,,7,,5x,,
{16},,,,8x-2v4[8:3],8x,8x,,6b,,,6h[16:3],,,,,
{16}7h[8:1],,,7h[8:1]/1,,,74,,5b,6,4,7,3,8,2,,
{16}2h[8:1]/1,,,2h[8:1]/4,,,27,,7b,8,6,1,5,2,4,,
{16}1-3<4[8:1]/4,,14,,1/4v2b[16:3],,,,6b-8-2-4[8:3],,,,6,,4x,,
{16},,,,5x>3v1[8:3],5x,5x,,6b,,,6h[16:3],,,,,
{16}7h[8:1],,,7h[8:1]/5,,,78,,8b,6,1,7,2,8,3,,
{16}3h[8:1]/1,,,3h[8:1]/4,,,37,,6b,4,5,3,4,2,3,,
{16}1x/4x,,5x/8x,,6x/7x,,,,E8/B8,,B6,,B4,,E2/B1,,
{16}B3,,B5,,C,,B8,,B2,,B4,,B6,,,,
{16}2bh[16:3],,,4,2,,35,,{24}5b,6,7,1,2,3,5,6,7,8,,,
{16}2xh[16:3],,,8,2,,37,,{24}7b,6,5,3,2,1,7,6,5,4,,,
{16}2x,,1x/8x,,5/7h[8:2],,,,1bv6[8:1],,6-8[8:1],,1,,5,,
{16}4<7[8:1],,,,1-6b[8:1],2,3,,3bx-8[8:1],,,,5x,,,,
{16}7h[16:3],,,5,7,,64,,{24}4b,3,2,8,7,6,4,3,2,1,,,
{16}7xh[16:3],,,1,7,,62,,{24}2b,3,4,6,7,8,2,3,4,5,,,
{16}7x,,8x/1x,,4/2h[8:2],,,,8bv3[8:1],,3-1[8:1],,8,,4,,
{16}5>2[8:1],,,,8v1b[8:1],7,6,,5bxv4[8:1],,,,,,,,
{16}2h[16:3],,,1,2,,38,,{24}8b,7,6,3,4,5,1x,2x,3x,4x/8,,,
{16}8xh[16:3],,,7,8,,16,,{24}1b,2,3,6,5,4,8x,7x,6x,5x/1,,,
{16}8x,,57,,3h[8:2]/4,,,,5b-7[8:1],,3,,5V31b[8:2],,4,,
{16},,,,8,7,6,,6h[8:2]/8b-3[8:1],,,,,,,,
{16}7h[16:3],,,8,7,,61,,{24}1b,2,3,6,5,4,8,7,6,51,,,
{16}1xh[16:3],,,2,1,,83,,{24}8b,7,6,3,4,5,1,2,3,4x/8x,,,
{16}B1h[16:8],,E2h[16:6],,B2h[16:4],,,,E6/B5/B6,,,,3,,3qq5[16:15],,
{16},,,,8h[1:0],7h[1:0],6pp5b[16:7],,,,,,,,,,
{16}A5f/E6/E5,,,,,,,,,,,,,,,,
{16},,,,,,,,,,,,,,,,
{16}7h[8:3],,,,6,,5h[8:3],,,,6,,7,,,,
{16}8h[8:3],,,,7,,B6,,,,1,,B2,,,,
{16}3h[8:2],,,,5,,,,,,4,,3h[8:2],,,,
{16}6h[8:2],,,,4,,,,,,5,,6h[8:2],,,,
{16}2h[8:3],,,,3,,4h[8:3],,,,3,,2,,,,
{16}1h[8:3],,,,7,,B7,,,,3,,B3,,,,
{16}5,,3,,8b,,2,1,2b,1,2,,8x,,,,
{16}7b,6,7,6,7,,4,6,4,6,4,,7x,,,,
{16}4,,6,,1,,7,8,7,8,7,,1x,,,,
{16}6,5,6,,2,,5,4,5,,1,,7x,,,,
{16}4,,6,,1b,,7,8,7b,8,7,,1x,,,,
{16}2b,4,2,4,2,,5,4,5,4,5,,2x,,,,
{16}5,,3,,8,,2,1,2,1,2,,7x,,,,
{16}3,4,3h[8:1],,6,5,7h[8:1],,3q7b[8:1],4,1h[8:1],,,,,,
{32}2/8b,3,4,5h[32:5],{16},,{32}1,2,3,4h[32:5],{16},,8b>3[8:1],,,6,8,,7,,
{32}7x,6,5,4h[32:5],{16},,{32}1-7b[8:1],2,3,4,{16}6,6,1,,,4-6[32:5],,,8,8,
{16}4x,,1x-6b[8:1],1x,8,3,1,,4,4,5x,,3>7[4:1],,5,,
{16}7<3[4:1],,,,3V52b[16:5],,,,C,,,,7,,,,
{32}7x/1b,6,5,4h[32:5],{16},,{32}8,7,6,5h[32:5],{16},,1b<6[8:1],,,3,1,,2,,
{32}2x,3,4,5h[32:5],{16},,{32}8-2b[8:1],7,6,5,{16}3,3,8,,,5-3[32:5],,,1,1,
{16}5x,,8x-3b[8:1],8x,1,6,8,,5,5,4x,,6<2[4:1],,4,,
{16}2>6[4:1],,,,6V47b[16:5],,,,C,,,,1,,,,
{32}1/8b,2,3,4h[32:5],{16},,{32}1,2,3,4h[32:5],{16},,8bv3[8:1],,,1,8,,2,,
{32}1x,8,7,6h[32:5],{16},,{32}8-2b[8:1],7,6,5,{16}3,3,8,,,5-2[32:5],,,8,8,
{16}5x,,7x-3b[8:1],7x,8,5,7,,6,6,4x,,4V27[8:2],,5,,
{16}7V51[8:2],,,,1v4-2b[16:5],,,,E7/B6,,,,8,,,,
{32}8x/1b,7,6,5h[32:5],{16},,{32}8,7,6,5h[32:5],{16},,1bv6[8:1],,,8,1,,7,,
{32}8x,1,2,3h[32:5],{16},,{32}1-7b[8:1],2,3,4,{16}6,6,1,,,4-7[32:5],,,1,1,
{16}4x,,2x-6b[8:1],2x,1,4,2,,3,3,5x,,2-6b[8:1],,5,,
{16}E4h[4:1]/B4h[4:2]/E5h[4:3],,,,,,,,,,,,,,,,
{16}8x-6[16:1],,,{32}81,2,3,4,
{16},,,5b-3b[16:1],,,{32}1/5,8,7,6,{16},,,
{16}7-5[16:1],,,{32}71,2,3,4,{16},,,2b/6h[8:2],,,,8,7,8,,
{16}1-7[16:1]/6,,,{32}61,5,4,3,{16},,,4b-6b[16:1],,,{32}48,1,2,3,{16},,,
{16}4-2[16:1],,,{32}41,8,7,6,{16},,,1b-3b[8:1]/4-8-6[16:3],,,,1,,,,
{16}4x-2[16:1],,,{32}48,7,6,5,
{16},,,4b-6b[16:1],,,{32}8/4,1,2,3,{16},,,
{16}2-4[16:1],,,{32}28,7,6,5,{16},,,7b/3h[8:2],,,,1,2,1,,
{16}8-2[16:1]/3,,,{32}38,4,5,6,{16},,,5b-3b[16:1],,,{32}51,8,7,6,{16},,,
{16}2xb/4x,,,1,28,,46,,5x/7xb,,,18,18,,34,,
{32}2>4[8:1]x/5x,1,{16}8,,5,2,,6,,{32}5/7b<5b[8:1],8,{16}1,,3,7,,2,,
{32}1>2-4[8:1]/4,8,{16}7,,5,1,,7,,1b/5x,,,,56,56,56,,
{32}7<5[8:1]x/4x,8,{16}1,,4,7,,3,,{32}4/2b>4b[8:1],1,{16}8,,6,2,,7,,
{32}8<7-5[8:1]/5,1,{16}2,,4,8,,2,,8b-3b[8:1]/4x-7-5[16:3],,,,,,,,
{32}2x<8[8:1],3,{16}4,,6,2,,7,,{32}6b<8b[8:1],5,{16}4,,1,6,,3,,
{32}4>3-1[8:1]/1,5,{16}6,,8,4,,6,,4b/8x,,,,15,25,35,,
{16}6b,4,7,3b,4,2,7b,1,6bh[1:0],4,8,3,{24}1bh[1:0],2,1,2,1,2,
{16}8qq4[8:6]`3xp1b[8:4],,,,,,,,,,,,,,,,
{16}3b/E4f,,,,,,,,,,,,,,,,
E
