&title=聖人君子でありたい
&artist=しゃいと
&first=-0.04
&des=nomiko
&lv_5=13.9
&des_5=nomiko
&inote_5=
(174){4},,,,,,,3/E8/B7,
{64},,,,,,,,,,,,,,,,3`B6,B5,{4},{16},,,{32},{4}6/B2/E2,
{64},,,,,,,,,,,,,,,,6/B2`B3,B4,{4},{16},,,{32},{4}3/B7/E8,
{64},,,,,,,,,,,,,,,,3`B6,B5,{4},{16},,,{32},{4}6/B2/E2,
{64},,,,,,,,,,,,,,,,6/B2`B3,B4,{4},{16},,,{32},{4}2/E8/B7,
,3h/B6`B5,,7/B2/E2,
{64},,,,,,,,,,,,,,,,6h/B2`B3,B4,{4},{16},,,{32},{4}2/B7/E8,
,B6/3-8V64-2[2:1]`B5,,,{2}7h[4:1],
{32}2/6h[4:1],3,{16}4,{32},,,,,,,,3h[8:1]/1V35v2[4:1],8,{16}7,
{32},,,,,,,,,,,,,,,,3h[4:1]/7p4[4:1],6,{16}5,,,,,{8}2h[4:1],
{32},,,,,,,,,,,,,,,,2/6h[4:1],3,{16}4,{32},,,,,,,,3h[8:1]/1V35v2[4:1],8,{16}7,
{32},,,,,,,,,,,,,,,,3h[4:1]/7V51[4:1],6,{16}5,,,,,{8}2h[8:3],
,,{4}8b,7/1v4[8:1],1/6,
{8}3/8V64[8:1],2h[8:1],8,3,{4}2/8v5[8:1],8/3,
{8}1V35[8:1],7h[8:1],1,6,8,7,6h[8:1],{16}7,8,
1,2,{8}3bxV15[8:1]/6bx-2[8:1],,,,7bxz3b[8:1],,,,,{4}8h[4:1],
{2}2-6[8:1],
7-4[8:1],5V31[8:1],
{4}8,8/7,{2}7-3[8:1],
2-5[8:1],4V68[8:1],
{4}2,2/1,2-6[8:1],2/7-4[8:1],
7/5V31[8:1],5,7-3[8:1],7/2-5[8:1],
2/4V68[8:1],{8}4/2,2,{16}2,1,2,1,2,3,2,4,
2,5,2-6[8:1],6,2,7,{8}2b,{32},,,,4x,3,2,1,{4}6xh[4:1]/8bw4b[8:1],
,7x-3[8:1]/1x-5[8:1],1b/7b,{8}2-5[8:1],6,
{4}2/4V68[8:1],{8}4,1,{4}2-6[8:1],{8}2/7-4[8:1],8,
{4}7/5V31[8:1],{8}5,6,{4}7-3[8:1],7/2-5[8:1],
2/4V68[8:1],4/1,B7/E7/2<7[8:1],2/B5/E6,
B4/E4/6>3[8:1],6/E3/B2,8b/1b,{8}2-5[8:1],6,
{4}2/4V68[8:1],{8}4,1,{4}2-6[8:1],{8}2/7-4[8:1],8,
{4}7/5V31[8:1],{8}5,6,{4}7-3[8:1],7/2-5[8:1],
2/4V68[8:1],{8}1/4,2-6[8:1],5,2-4[8:1],4V68-2[8:3],2,
{4}6,5-1[8:1],{8}5,{16},,,,3,3,
{6}3,4b,5b,6h[8:1],{12},{4}5h[8:1],
{8}7,5,6>3[4:1],2h[8:3],,,,1,
,8,,3h[8:1],,4h[8:1],,2,
5,3q5[8:3],{4}7h[8:3],{8},,,8,
,1,,6h[8:1],,2,7,3,
8,4,{4}1-5[8:1],4v7[8:1],6h[8:1],
{8},8>5[8:5],,Ch[8:11],,,,,,,,,{2}6>3[8:1],
{8},3x-6[8:1]/2x-7[8:1],{24},,,,,,{6}E7/B7/B6,1x>6[24:5],{24},{8}8,
,7,{24},,,,,,{6}1-6V82[4:1],5,{24},{8}5,
,7b,7,7,{6}E3/B2/B3,8x<3[24:5],{24},{8}1,
,2,{24},,,,,,{6}8-3V17[4:1],4,{24},{8}4,
,2b,2,2,{16}4,3,4,3,8,7,8,7,
2x,3,4,5,1x,8,7,6,,,2,8,1V35[4:1],7,8,6,
{4}1xV75[4:1],1x,{16},,1,5,1,5,2,6,
2,6,7,8,{4}1V75[4:1],{16}2x,3,{8}4,{4}2V86[4:1],
{16}3x,4,{8}5,{4}3,{16}2,1,2,1,6<1[8:1],5,6,5,
{4}6x>3[8:1],6x,{16},,6,8,7-4[8:1],1,8,2,
{4}7x-3[8:1],7x,{16},,8,4,8,4,7,3,
7,3,2,1,{4}8V24[4:1],{16}7x,6,{8}5,{4}7V13[4:1],
{16}6x,5,{8}4,{4}6,{32}2,3,{16}4,,1h[16:3],,,{8}2x,
{32},,,,,,,,7,6,{16}5,,8h[16:3],,,{8}7x,{32},,,,,,,,2,
3,{16}4,,1h[16:3],,,{8}2xV48[4:1],,2x,{4}7h[4:1],
1b,{32}7x/8b,6,{16}5,,1h[16:3],,,{8}2x,{32},,,,,,,,2x/1b,
3,{16}4,,8h[16:3],,,{8}7x,{32},,,,,,,,7x/8b,6,{16}5,,1h[16:3],
,,{8}2x-6[8:1],,,8xh[6:5],{16},,,,6x,5x,
{6}4x,4x,4b,3/B6/E6,{4},{16},{64},{192},{64}3h`B6,
B5,{4},{16},,,{32},{2}6/B3/E4,
{64}6h`B3,B4,{4},{16},,,{32},{2}3/B6/E6,
{64}3V51[4:1]`B6,B5,,,,,,,,,,,,,,,{8}3x,7-3[8:1],,7x/2-6[8:1],,2x/4x,
{24},,,,,,,,,5x/3xh[8:1],6,7,{8}8,5x>2[8:1]/1x<6[8:1],,5b/1b,
,,,,,,,,,,{4}6xh[4:1],
{2}2-6[8:1],
7-4[8:1],5V31[8:1],
{4}8,1-5b[8:1]/7-4b[8:1],7b/1b,{32}8x/6x-2b[8:1],1,2,3,{8}4,
{4}6,{8}5,4,3/7V53b[8:1],2,{4}7/1-5b[8:1],
1b,{8}8,7,{4}6b/1h[4:1],{8}4,5,
{4}6b/3h[4:1],{8}8h[8:1],2-5[8:1],,2-8[8:1],7,2-4[8:1],
5,2-6[8:1],7,2,{4}1bxw5b[8:1],1bx,
{8}1,8,7/3V17b[8:1],4,{4}3/5-1b[8:1],5b,
2/8,3/7,{16}6,5,6,4,6,3,6,2,
6,1,6,1,{8}6,{32}8x,1,2,3,{2}4,
{4}2xh[4:1],{32}4x,5,6,7,{8}8bV64-7b[4:1],{32},,,,,,,,,,,,,,,,2x,
1,8,7,6,5,4,3,{4}2x-6[8:1]/8x-4[8:1],8b/2b,{8}7v4[8:1],3,
{4}7/5-2[8:1],{8}5,8,{4}7-3[8:1],{8}7/2v5[8:1],1,
{4}2/4-7[8:1],{8}4,3,{4}2-6[8:1],2/7v4[8:1],
7/5,{8}8,4,7>2b[8:1],E3/B2,{4}7x,
{8}3<6b[8:1],B6/E7,{4}3x,1b/8b,{8}7v4[8:1],3,
{4}7/5-2[8:1],{8}5,8,{4}7-3[8:1],{8}7/2v5[8:1],1,
{4}2/4-7[8:1],{8}4,1,{4}2-6b[8:1],2/8-4b[8:1],
8,{8}5,4,8/3,7,6/2-5[8:1],5,
2-8[8:1],7,2>8b[4:1],5,{4}2b,{8}4,1,
{4}2/4-7[8:1],{8}4,1,{4}2-6[8:1],{8}2/7v4[8:1],8,
{4}7/5,{8}5-8[8:1]*-7[8:1],4,{4}5-2[8:1]*-3[8:1],5w1b[8:1],
{8},,6v1[8:1],7,2-5[8:1],3,8-4[8:1],7,
1,2,{4}1v3b[8:1]*s5b[8:1],1b,{8}2v5[8:1],6,
{4}2/4-7[8:1],{8}4,1,{4}2-6[8:1],{8}2/7v4[8:1],8,
{4}7/5-2[8:1],{8}5,8,7/C,6,1/E6/B5,2,
6/B3/E4,7,5/B8/E1,4,{16}3,7,3,7,3,7,2,6,
1,5,8,4,{4}7bx-3b[8:1],{8}Cf,{16},,,,4,4,
{6}4b,4b,{3}4b,
E
