&title=僕なんかいなくても
&artist=ピノキオピー
&first=-0.08
&des=Rayton
&lv_5=13
&inote_5=(135)
{1},
{4}4b>1[4:1]/3bh[4:8],,,8,8<5[4:1],,,4,
{4}5h[1:1],,B3,B1,2h[2:1],,1z5[4:1],,
{8}3x,3x,3x,5xqq5[4:1]*pp6[4:1],,,,,
{8}7x,7x,7x,4xpp4qq3[8:3],,,,,
{4}8xh[2:1],2,3h[2:1],5,7<2[2:1],,,C,
{4}7bh[4:3]/5b-8[8:1],,1,2h[1:1],3>8[8:1],,1,4h[1:1],2-5[8:1],,1,
{4}2h[4:3],6-1[8:1],,7x-5-1[4:1],,
{8}2,3,4,5xqq5pp6[8:3],B4,,,,
{8}1x,2,3,4xpp4qq3[8:3],B8,,,,
{8}8xh[2:1],,6,,5h[2:1],,7,,
{8}6<8z4[4:2],,8xh[4:2],,,,,,
{8}1p1[4:1],1,,5,5xh[8:1],,2>5[8:1],2,,
{8}6-8-2[4:1],6,,4h[4:1],,,,
{8}6h[4:7]/4-2[8:1],,,,4<7[8:1],,,,4-8[8:1],,,,4>1[8:1],,,,
{8}2h[4:3]/8-6[8:1],,,,8-3[8:1],,,,8qq8[4:1]*pp8[4:1],,8x>7[8:4],,,,,,Cf,,
{16}2>5[8:1],1,2,,28,,,,7,7,1h[4:1],,8b-5[8:1],,7b,,,,
{16}3>1[8:1],,7<5[8:1],,3-8[8:1],,7-4[8:1],,,,,,,,
{16}3>8[8:1],4,3,,35,,,,6,6,4h[4:1],,5b-8[8:1],,6b,,,,
{16}2>4[8:1],,6<8[8:1],,2-5[8:1],,6-1[8:1],,,,,,,,
{12}2x,3,4,6x,7,8,5x,4,3,
{16}8,,7xh[8:1],,1,,2xh[8:1],,8<3[4:1],,,,2,,2,,
{8}1bh[1:1],,B8,,B7,,B6,,
{16}6<1[4:1],,,6,,,,,2>5[4:1],,,2,
{16},,8,,
{4}8b<6-1>3-8[4:6],,,
{16},,B5,,,,B4,,,,,,,,,,,,1,,
{4}1b-6<7-3>2-5[4:6],,,
{16},,B6,,,,B1,,,,,,,,,,,,6,,
{4}6b<8-4>2-6[4:7],,,
{16},,B7,,,,B3,,,,,,,,,,,,,,2xh[4:7],,,,,,,,,,,,,,E7,,,,E6,,,,,,,,,,,,,,
{16}17,,1,,16,,1,,1/5-1[8:1],,,,,,,,82,,8,,83,,8,,8/4-8[8:1],,,,,,,,
{16}1,7,2,6,3,5,4,6,3,7,2,8,1,7,2,6,
{16}3h[16:1],5h[16:1],3h[16:1],5h[16:1],4h[16:1],6h[16:1],4h[16:1],6h[16:1],
{16}3h[16:1],5h[16:1],4h[16:1],6h[16:1],3h[16:1],5h[16:1],2h[8:1],,
{16}6>4-8[2:1],,,,B1,,,,B2,,,,B3,,,,2<8-4[2:1],,,,B5,,,,B6,,,,B7,,,,
{16}6-1-5-2[2:1]/2,,,,,,,,,,,,,,,,
{16}1,1,7,7,2,2,6,6,3,3,5,5,4,4,6,6,2>8[2:1],,,,,,,,1xs5[8:1],,,,,,,,Cf,,,,
{16}2>5[8:1],8,1,,28,,,,7-3[8:1],7x,1,1x-5[8:1],7b,,,1b,,,
{16}6<8[8:1],6x,2>4[8:1],,6-1[8:1],,2-5[8:1],,,,,,,,
{16}6<1[8:1],5,5,,64,,,,3>1[8:1],3x,7<5[8:1],7x,3b,,7b,,,,
{16}2>4[8:1],,6<8[8:1],,2-5[8:1],,6-1[8:1],,,,,,,,
{12}2x,4,3,7x,5,6,4/5h[4:1],,,B4f,,,
{12}8,5,6,1,4,3,7/2h[4:1],,,
{8}8bh[4:3],,1,1,2,2,3,3,
{12}8<5[8:1]/4>1[8:1],,37,,,,8>3[8:1]/4<7[8:1],,15,,,,
{32}B6,B5,B4,B3,B2,B1,B8,B7,B6f/2x>5[8:1],,,,,,,,
{16}26,,,,
{16}7-4[8:1],7x,8,8x-5[8:1],7b,,,8b,,,
{16}6x<8[8:1],6x,2>4[8:1],,6-1[8:1],,2-5[8:1],,6,,A2f,,,,
{16}6<1[8:1],5,5,,64,,,,3>1[8:1],3x,7<5[8:1],7x,3b,,7b,,,,2,,
{16}1h[16:1]/7b,7,,5h[16:1]/3b,3,,
{8}4-2-8-6-4>4[8:13],4/5h[8:2],,
{16},,B5,B6,E7,,,,
{8},,7xh[4:1],,,,8xh[4:1],,,,
{8}3/7<5p1p5>3[4:6],3h[8:5]/7,,,,,,,B8,,C,,B4,,,,
{8}2>4q1q6<8[2:3]/8,2/8h[8:5],,,,,,,B5,,C,,B1,,,,
{8}1bh[1:3],,,,,,,,
{16}6x-8[8:1],,,6x,,,,,7x-5>5[8:6],,,7x,,,,,,,,,,,,,,,,,8x-4[16:1],,,,,,,,,,,,,,,,
{16},,1b/7b,,2,4,3>1[8:1],,5,,34,,6,6,2,8,5-1[8:1],,6,,35,,2,,3,,3h[8:1],,
{16}7<4[8:1],4,6,3,7,,2,,1,1,7-5[8:1],,2,2,7,,3,3,6,4,5,2,7,,
{16}3-5[8:1],7,7,,38,,8h[8:1],,2-5[8:1],,,1,2,,7,,
{16}8,8,1-3[8:1],,78,,1,,7,7,2,5,4-8[8:1],6,6,,34,,1,,2,,3,,
{16}7,7,4,4,6,3,5,,
{16}4-7[8:1]/6,,3,,24,,1,,8-3[8:1],,7,,68,,5,,
{16}1<7-2[16:3]/5>3-6[16:3],,,1x/5x,,,,,1x-4[8:1]/5x-8[8:1],,,37,,,,,
{16}2xbh[16:62]/6xb>3[2:1],,,,,,,,,,,,,,B7,,,,B6,,,,,,,,,,,,,,
{16}1xb<6[2:1],,,,,,,,,,,,,,B2,,,,B3,,,,,,,,,,,,E5,,
