&title=花弁、それにまつわる音声
&artist=あばらや
&first=0
&des=aoihoshi
&lv_5=13+
&inote_5=(108)
{1},,
{24}
4h[8:1],,,,,,4h[8:1],,,,,,4h[8:1],,,,,,4/8x-4[12:1],,,,,,
3h[24:5]/8b,,,,,5,4h[24:5],,,,,6,5-2[12:1],,,1,,,85,,,7,,,
6h[24:5]/1,,,,,4,5h[24:5],,,,,3,4-7[12:1],,,8,,,41,,,2,,,
8/3h[8:1],,,5,,5,2h[8:1],,,4,,4,1-5[12:1],,,3-7[12:1],,,1-3-7-5b[2:1],,,3,,,
,,,,,,,,,,,,,,,45,,5,4,,5,4x,,5,
1bh[24:5],,,,,6,5h[24:5],,,,,8,3^5[12:1],,,5^3[12:1],,,,,,,,,
7h[24:5],,,,,8,5h[24:5],,,,,4,7,,,5x/6x,,,4x/5x,,,3x/4x,,,
1h[24:5],,,,,4,3h[24:5],,,,,1,2^7[12:1],,,7^2[12:1],,,,,,,,,
48,,3,7,,,2-5[12:1]/6,,,15,,,,,,7xh[12:1],,E6,E7,E8,E1,E2,E3,E4,
8bh[24:5],,,,,3,4h[24:5],,,,,1,6^4[12:1],,,4v6[8:1],,,,,,,,,
2h[24:5],,,1,,1,3h[24:5],,,,,4,1,,,5x/2x,,,6x/3x,,,7x/4x,,,
8h[24:5],,,,,5,6h[24:5],,,,,8,7v2[12:1],,,2^7[12:1],,,,,,,,,
3,,,6x,4,5,3x,5,4,6xh[4:1],,,,,,5,,5,7,,7,4,,4,
8v5[12:1],,3,4-1[12:1],,,,,,,,,8h[8:1],,,5,,5,7,,7,6,,6,
1v6[12:1],,3,4-1[12:1],,,,,,,,,7h[8:1],,,8,,8,6,,6,5,,5,
2v7[12:1],,3,4-1[12:1],,,,,,A4,,,8,,,17,,,2,,2,4,,4,
5p1[12:1],,6,4,,,8p7[4:1],,,7,,,3h[4:1],,,,,,,,,,,,
6h[8:3],,,5,,,4,,,3,,,2h[4:1],,,1,,,8,,8,1,,1,
{16}2xh[8:1]/7xh[8:1],,,4xh[8:1]/5xh[8:1],,,1/8z4[4:1],,,,{24}3,,,2,,,1<1[4:3],,,
,,,,,,,,,,,,,,,,,,,,,E5,E4,E3,
E2,E1,E8,E7,E6,D5,D4,D3,D2,D1,D8,D7,D6,D5,D4,D3/E3f/B3/B2/1bh[8:3],,,,,,,,,
6^3[12:1],,,78,,,4-8[12:1]/6,,,1,,1,4^1^4[6:1],,,2,,,6x,,6x,,,,
5^8[12:1],,,34,,,5/1-5[12:1],,,2,,2,1-4-1[6:1],,,3,,,6x,,6x,,,,
7-4[12:1],,,56,,,7/8^5[12:1],,,2,,2,8^3[12:1],,,1,,,6x,,7x,,,8,
3h[12:1],,8,5h[12:1],,8,2h[12:1],,8,4h[12:1],,8,1xh[12:1],,7,1xh[12:1],,6,1xh[12:1],,5,1xh[12:1],,4,
3^6[12:1],,,21,,,5-1[12:1]/3,,,8,,8,5^8^5[6:1],,,7,,,3x,,3x,,,,
4^1[12:1],,,65,,,4/8-4[12:1],,,7,,7,8^5[12:1],,,1,,,4-8b[12:1]/8b,,,2-5b[12:1],,,
4,,,2,,,1,,,37,,6,5,,5,8,,8,1,,1,4,,4,
3-6[12:1],,,2,,,7/3,,,8,,,2-5[12:1]/7-4[12:1],,1,8,,8,2b/7b`E5f,,,,,,
3x-1[12:1],,4,5,,5,3x^6[12:1],,,6,,,3x/7x,,,8,,,1x/7x,,3,4,,,
5x/6x,,7,8,,8,6x-8[12:1],,,2v5[12:1]/4,,,6xv1[12:1],,,2-4[12:1],,,6x,,,2,,,
7x-3[12:1],,6,5,,5,7x,,,2,,,1x^4[12:1],,,78,,,1x/6x,,,5,,,
3x/4x,,,2,,,5x>6[4:1]/6xp5[4:1],,,7,,,,,,,,,E6f,,,,,,
7x-4[12:1],,6,5,,1,7x^2[12:1],,,3,,,7x/3x,,,4,,,5x/3x,,7,8,,,
1x/2x,,3,4,,4,2x^5[12:1],,,6v1[12:1]/8,,,2xv5[12:1],,,6^1[12:1],,,2x,,,6,,,
3x-8[12:1],,,4,,,3x/5xh[4:1],,,,,,7x-4[12:1],,,8,,,7x/1xh[4:1],,,,,,
3x,,,2x/4x,,,6x,,,5x/7x,,,1x,,1,8x,,8,2x-6[12:1],3,4,7x,6,5,
2bx>1[13.5#32:7],,,,,,,,,,,,,,,,,,,,,,,,
,,,,,,,,,,,,,,,,,,,,,,,,
6h[2:1],,,,,,,,,,,,,,,,,,C,,,,,,
5h[4:1],,,,,,,,,,,,6,,,,,,7<8[4:7],,,,,,
3h[2:1],,,,,,,,,,,,,,,,,,C,,,,,,
4h[4:1],,,,,,,,,,,,3,,,,,,2,,,,,,
1h[2:1],,,,,,B4/B5,,,,,,8h[2:1],,,,,,B4/B5,,,,,,
2h[2:1],,,,,,B4/B5,,,,,,7<7[4:3]*>7[4:3],,,,,,,,,,,,
,,,,,,,,,,,,,,,,,,,,,34,,,
2x-6[12:1]/5x-8[12:1],,,,,,,,,,,,7x-3[12:1]/4x-1[12:1],,,,,,,,,,,,
2,,2,3,,3,4,,4,5,,5,6,,6,7,,7,8,,8,1,,1,
2,4,3,7,5,6,2,1,3,7w3b[12:1],8,6,1,,,E7/E8/B7f,,,,,,,,,
1h[48:35]/5h[48:35],,,,,,,,,,,,,,,,,,{64}2b/6b,37,48,15,,,,,,,,,,,,,
{24}4^1[12:1],,,65,,,4/8-4[12:1],,,7,,7,8-5[12:1],,,5-8[12:1],,,3x,,3x,,,,
2-5[12:1],,,43,,,2/1^4[12:1],,,7,,7,1^6[12:1],,,8,,,3x,,2x,,,1,
6h[12:1],,1,4h[12:1],,1,7h[12:1],,1,5h[12:1],,1,8xh[12:1],,2,8xh[12:1],,3,8xh[12:1],,4,8xh[12:1],,5,
6-3[12:1],,,78,,,4-8[12:1]/6,,,1,,1,4^1[12:1],,,1^4[12:1],,,6x,,6x,,,,
5^8[12:1],,,34,,,5/1-5[12:1],,,2,,2,1^4[12:1],,,8,,,5p1b[12:1]/1b,,,7v4b[12:1],,,
5,,,7,,,8,,,62,,3,4,,4,1,,1,8,,8,5,,5,
6h[12:1],,1,6h[12:1],,8,6h[12:1],,7,6h[12:1],,5,6h[12:1],,4,5h[12:1],,3,4-8[12:1],,,3-7[12:1]/5,,,
4x^7[12:1],,,3x,,,4b,,,1,,1,5-2[12:1],,,2-5[12:1]/8,,,6x,,7x,,,,
8^5[12:1],,,36,,,4-8[12:1]/8,,,3,,3,4^1[12:1],,,1^4[12:1],,,8x,,6x,,,,
6^1[12:1],,,25,,,1-5[12:1]/6,,,3,,3,1-4[12:1],,,4-7[12:1],,,6x,,6x,,,8,
8h[12:1],,1,8h[12:1],,2,8h[12:1],,3,8h[12:1],,4,1xh[12:1],,4,2xh[12:1],,4,3xh[12:1],,4,5xh[12:1],,4,
6^3[12:1],,,78,,,6/4-8[12:1],,,1,,1,4^1^4[6:1],,,2,,,6x,,6x,,,,
5^8[12:1],,,34,,,5/1-5[12:1],,,2,,2,1^4[12:1]*^6[12:1],,,8,,,1b,,,,,,
4-8[12:1],,6,5-1[12:1],,3,4,,,5,,,4-1[12:1],,7,5-8[12:1],,2,4,,,5,,,
{48}A7,A6,A5,,,,A2,A3,A4,,,,E1f,C,E5,,,,,,,,,,,,,,,,,,,,,,,,,,,,,,,,,,
{24}
3h[24:5]/8b,,,,,5,4h[24:5],,,,,6,5-2[12:1],,,1/2-5[12:1],,,85,,,7,,,
6h[24:5],,,,,4,5h[24:5],,,,,3,4-7[12:1],,,8/7-4[12:1],,,41,,,2,,,
3h[24:5],,,,,7,5h[24:5],,,,,1,2-6[12:1],,,6-3[12:1],,,4,,,4,,,
8h[24:5],,,,,4,6h[24:5],,,,,2,4,,,15,,,{32}1x,8x,1x,8x,1x,8x,1x,8x,
{24}
1bh[1:1],,,,,8,8,,,,,7,7,,,6,,,5,,,4,,,
3-6b[16:1],,,,4,5,36,,,,,,,
