&title=おひさま (TV Edit)
&artist=雨先案内人
&first=-0.109
&des_5=Article
&lv_5=13
&des=Article
&inote_2=(96)
{16},,,1,,,,1,,,1,,1,,,1,,{32}1,8,1,,{16}8,8,{32},,8,1,{16}8,1,,,1,1,,,,
{16}6,5,4,,8,,,1,1,,,7,,C,,,
{16},3,4,5,,1,,,,8,,,2,,,,
{16},2,1,8,7,,4,,,,4,,,6,,,
{16},,5,4,5,4,5,6,7,,7,5,6,
{16}4,5,,
{16},,3,4,{32}5,,6,,7h[4:1],,,,{16},,
{32},1,{16},,,1,,1,,
{16}6,5,4,3,2,,,,8,,,8,,1,,,
{16}1,,1,,1,,,,1,,
{16}1,1,,1,1,,1,,1,,1,,,1,,,1,,,1,
{16},1,1,1,1,,1,,1,,,,1,,1,,
{16}1,,1,1,,1,1,,1,,,,1,,1,,
{16}1,1,1,,
{16}1,1,
{16},,1,1,
{16},,1,,1,1,,,,,
{16}2-5[16:1]/8-5[16:1],,4-1[16:1]/6-1[16:1],,2>5[16:1]/8<5[16:1],,4/6,,2/8,,,,
{8}1>1[4:3],,,,,,1>1[4:2],,,,1>1[4:2],,,,1>1[4:2],,,,1>1[4:2],,,,1>1[4:2],,,,1>1[4:2],,,,,,
{16},,,1>1[4:2],,,,,,,,1>1[4:2],,,,,,,,1>1[16:7],,,,,,,1>1[4:2],,,,,,,,1>1[4:2],,,,,,,,1>1[4:2],,,,,,,,1>3[8:1],,,,,,,,4/6,,3/5,,4/6,,
(192)
{8},,1/8-6[8:1],,1-3[8:1]/8,,1/8-4[8:1],,1/8,,1,8,1,,8/1-3[8:1],,8-6[8:1]/1,,8/1-5[8:1],,1/8-4[8:1],,1-3[8:1]/8,,1/8,,8,1,8,,1/8,,
{8},,1/8-6[8:1],,1-3[8:1]/8,,1/8-4[8:1],,1/8,,1,8,1,,8/1,,8/1,,4/5,4/5,4/5,,1/8,1/8,1/8,,4h[2:1]/5h[2:1],,,,,,
{8},,4/5-7[8:1],,4-2[8:1]/5,,4/5-1[8:1],,4/5,,4,5,4,,5/4-2[8:1],,5-7[8:1]/4,,5/4-8[8:1],,4/5-1[8:1],,4-2[8:1]/5,,4/5,,5,4,5,,4/5,,
{8},,4/5-7[8:1],,4-2[8:1]/5,,4/5-1[8:1],,4/5,,4,5,4,,5/4,,5/4,,1/8,1/8,1/8,,4/5,4/5,4/5,,1h[2:1]/8h[2:1],
E
&inote_5=(96)
{32},,,,,,1,,,,,,,,1,,,,,,,1,,,,1,,,,,1,,,,{32}1x,8x,1x,,{32},8,,,{32},8x,1x,{64}8x,,,,1,,,,,,1,,,,,,,,1,,,1,{32},,,,,,,,
{16}6,5,4,,8,,,{32}1,,,1,,,,,{32},7h[32:4],,,{64}1,2,3,,{16},,
{32},,3,,4,,5,,,,,1/6,,,,,,,,4/8,,,,,,2/6,,,,,,,,
{32},,2,,1,,8,,7,,2/6,,,,,,,,,2/6,,,,,,4/8,,,,,,
{16},,5h[16:1],4h[16:1],6h[16:1],3h[16:1],5h[16:1],4h[16:1],6h[16:6],,{24}3,,4,,,3,
{24}3b,,,,
{64},,,,,,8,,,,8,,,,{64}1x,2x,3x,4x,5x,6x,7x,8x,{64}1h[64:17],,,,,,,,,,,,,,,,,
{32}8b,{16},,,1/6,,1/6,,
{32}6,,5,,4,,3,,,2/8,,,,,,,,3/8,,,,,,2/7,,,,1/6,,,,,
{16}1,,1,,{64}1/6,5,4h[4:1],,{16},,,1,,
{16}2h[8:1],,,7,7,,3,,3,,{64}3/8,7,6h[32:11],,{16},,1,,,1,,{32},5,,{16},
{64},,5,,,,,,,3,,,3,,,,,,,7,,,,1x,2x,3x,4x,5x,6x,7x,8x,{64}1,,,,5b,,,,,,,,,,,,1,,,,,,,,1,,,,,,{128},,,,,,,
{64}1/5,,,,,,,,3/7,,,,,,,2/6,,,,,3/7,,,,,,,,,,
{16}4/6,,,,4/5,,4/5,,
{16}8,7,6,,
{16}1/5,1/5,,
{16},3/7,3/7,,
{16},1-4[16:1]/5-8[16:1],,4/8,1/5,,,,,
{16}2-5[16:1]/8-5[16:1],,4-1[16:1]/6-1[16:1],,2>5[16:1]/8<5[16:1],,4/6,,2/8,,,,
{8}1>1[4:3]*>1[4:3],,,,,,1>1[4:2]*>1[4:2],,,,1>1[4:2]*>1[4:2],,,,1>1[4:2]*>1[4:2],,,,1>1[4:2]*>1[4:2],,,,1>1[4:2]*>1[4:2],,,,1>1[4:2]*>1[4:2],,,,,,
{16},,,5>5[4:2]*>5[4:2],,,,,,,,5>5[4:2]*>5[4:2],,,,,,,,5>5[16:7]*>5[16:7],,,,,,,5>5[4:2]*>5[4:2],,,,,,,,5>5[4:2]*>5[4:2],,,,,,,,5>5[4:2]*>5[4:2],,,,,,,,5>3[8:1]*>3[8:1],,,,,,,,2/8,,1/8,,1/7,,
{16},,6/8<6[16:1],,1>3[16:1]/3,,5/8,,1/4,,5,4,5,,3/1>3[16:1],,8<6[16:1]/6,,4/1-4[16:1],,5/8-5[16:1],,1/4,,5/8,,4,5,4,,1b/8b,,
{16},,7/2<7[16:1],,6>3[16:1]/3,,2/7,,3/6,,1,8,1,,8/1,,8/1,,
{24}1/5,,1/5,,1/5,,3/7,,3/7,,3/7,,1h[8:1]/5h[8:1],,,{64},2,3,4,5,6,7,8,{64}1b/5b,,,,,,,,
{16},,1-4[16:1]/7,,2/8-5[16:1],,1/7,,2/8,,1,8,1,,2/7,,1,8,2/7,,3/8,,1<6[16:1]/6,,3/8>3[16:1],,1w5[16:1]/5,,4/8,,1,,
{16},,4-1[16:1]/6,,3/5-8[16:1],,4/6,,3/5,,4,5,4,,3/6,,2/7,,
{24}4/8,,4/8,,4/8,,6/2,,6/2,,6/2,,4h[8:1]/8h[8:1],,,{64},7,6,5,4,3,2,1,8b/4b,,,,,,,,,
{24},,,1,,2,,3,,8,,7,,6,,1h[12:3],,,,,,{64}8,7,6,5,,,,,,,
{24},,,8,,7,,6,,1,,2,,3,,8h[12:3],,,,,,{64}1,2,3,4,,,,,,
{24},,,3/4,,4/5,,5/6,,3/4,,4/5,,5/6,,1h[12:3]/8h[12:3],,,,,,{64},2b/7b,3b/6b,4b/5b,,,,,
E
&inote_7=(96)
{16},,,1,,,,1,,,1,,1,,,1,,{32}1,8,1,,{16}8,8,{32},,8,1,{16}8,1,,,1,1,,,,
{16}6,5,4,,8,,,1,1,,,7,,C,,,
{16},3,4,5,,1,,,,8,,,2,,,,
{16},2,1,8,7,,4,,,,4,,,6,,,
{16},,5,4,5,4,5,6,7,,7,5,6,
{16}4,5,,
{16},,3,4,{32}5,,6,,7h[4:1],,,,{16},,
{32},1,{16},,,1,,1,,
{16}6,5,4,3,2,,,,8,,,8,,1,,,
{16}1,,1,,1,,,,1,,
{16}1,1,,1,1,,1,,1,,1,,,1,,,1,,,1,
{16},1,1,1,1,,1,,1,,,,1,,1,,
{16}1,,1,1,,1,1,,1,,,,1,,1,,
{16}1,1,1,,
{16}1,1,
{16},,1,1,
{16},,1,,1,1,,,,,
{16}2-5[16:1]/8-5[16:1],,4-1[16:1]/6-1[16:1],,2>5[16:1]/8<5[16:1],,4/6,,2/8,,,,
{8}1>1[4:3],,,,,,1>1[4:2],,,,1>1[4:2],,,,1>1[4:2],,,,1>1[4:2],,,,1>1[4:2],,,,1>1[4:2],,,,,,
{16},,,1>1[4:2],,,,,,,,1>1[4:2],,,,,,,,1>1[16:7],,,,,,,1>1[4:2],,,,,,,,1>1[4:2],,,,,,,,1>1[4:2],,,,,,,,1>3[8:1],,,,,,,,4/6,,3/5,,4/6,,
{16},,5/8<6[16:1],,1>3[16:1]/4,,6/8-5[16:1],,1-4[16:1]/3,,5/8<6[16:1],,1>3[16:1]/4,,6/8-5[16:1],,1-4[16:1]/3,,5/8<6[16:1],,1>3[16:1]/4,,6/8-5[16:1],,1-4[16:1]/3,,5/8<6[16:1],,1/4,,6/8,,,,
{16}7/8-6[16:1],,1/8-2[16:1],,7/8-5[16:1],,1/8-3[16:1],,6/8-4[16:1],,2/8w4[16:1],,8,,8,,
{16}2/6,2/6,2/6,2/6,3/7,3/7,3/7,3/7,2h[4:1]/6h[4:1],,,,,,
{16},,1-7[16:1]/8,,1-3[16:1]/2,,1-6[16:1]/8,,1-4[16:1]/2,,1-5[16:1]/7,,1-7[16:1]/8,,1-3[16:1]/2,,1-6[16:1]/8,,1-4[16:1]/2,,1-5[16:1]/7,,1-7[16:1]/8,,1-3[16:1]/2,,1-6[16:1]/8,,1/2,,1/7,,
{16},,1/2-5[16:1],,7-4[16:1]/8,,1-6[16:1]/2,,7/8-3[16:1],,1/2-5[16:1],,7-4[16:1]/8,,1/2,,7/8,,
{16}2/6,2/6,2/6,2/6,3/7,3/7,3/7,3/7,2h[4:1]/6h[4:1],,,,,,
E
