&title=溶けない109号室
&artist=TaKU.K
&first=0
&des=レティ・ホワイトロック
&lv_5=13+
&lv_6=13+
&inote_5=(76)
{1},
{4}A3,B4,B5,A6,A2,B1,B8,A7,
{12}1x-5[12:2],8,7,6h[12:2],,,8qq8[12:2],1,2,3h[12:2],,,
3qq5[12:3],4,5,6h[12:2],,,7,6,45,2x/7x,,,
1b>4[12:1]/6,2,2,6<1[12:1],5,5,2p5[12:2],3,3,2h[12:3],,,
6<1[12:1],5,4,3<6[12:1],2,1,8w4[12:2],7,6,,,,
8<5[12:1],7,7,3>8[12:1],4,4,7q4[12:2],6,6,7h[12:3],,,
3>8[12:1],4,5,6>3[12:1],7,8,1w5[12:2],2,3,,,,
2z6[12:2],1,8,7h[12:3],,,5s1[12:2],4,3,2h[12:2],,,
3<5[12:1],,B5,B6,,B7,2>6[12:2],E5,C,E1,,,
4>2[12:1],,E5,E6,E7,E8,1>5[12:2],,C,E7,,8,
7>1[12:1],,6,5-8[12:1],,3>1[16:1],3q5[12:2],,,,,,
6h[12:1],,B3,7h[12:1],,B2,6p2p6[12:2],,,C,,,
3-5-2[12:2],2,1,8,7,6,5-3-6[12:2],E1,E2,E3,,,
7-1-6[12:2],1,2,3,4,5,4-1-3[12:2],E8,E7,E6,,7,
8>2[12:1],,3,3q6[12:3],,8,C,,,7,1,3,
5<8[12:1],6,7,5>2[12:1],4,3,5qq6[12:2],,,2pp1[12:2],,,
7bqq8[12:2],,7,3qq4pp3[12:5],,3,7xh[12:3],,,,,8,
2pp1[12:2],,2,6pp5qq6[12:5],,6,2h[12:3],,,,,2,
3<6-3[12:2],,4,4,,7,6>3p6[12:2],,,3x,2x,1x,
2xh[12:1],3h[12:1],4h[12:1],5h[12:1],6h[12:1],7h[12:1],1bw5[12:1],,,1b,,37,
{24}4,5,2,5,4,7,1b-5[12:1],8,2,7,3,6,
{24}
1b<6[12:1],,,3,4,2,1pp8[12:2],,2,,3,,6h[12:1],,,,7x,,2/5,,3,,6,4,
8>3[12:1],,,6,5,7,8qq1[12:2],,7,,6,,4qq5[12:2],,3,,2,,7h[12:2],,,,,,
8>3[12:1],,,,7,,6q2[12:1],,5,,4,,3>7[12:1],,,,4,6,3,,,,6,4,
5-3-7-1[12:2],,4,,6x,3,5xh[12:2],,,,,,5xw1[8:1],1,6,2,7,3,5b,,,,,,
8x>3[12:1]/4,,,6,5,7,8qq1[12:2],,7,,6,,3h[12:1],,,,2x,,7/4,,6,,3,5,
1<6[12:1],,,3,4,2,1qq6[12:3],,2,,3,,4h[12:1],,,,4,3,2xh[12:1],,,,7x,1,
Ch[12:1],,,,2x,8,Ch[12:1],,,,8x,1,Ch[12:1],,,,1x,,28,,46,,17,,
3-5-7-1[12:2]/5,,6,,2x,4,3h[12:2],,,,,,3,5,1,5,7,5,1b,,3b/5b,,2b/8b,,
4b>1[12:1]/5b,,6,5,6,,8-4[12:1],,7,,6,,5>7[8:1],,6,,6,,1-5[12:1],,,,3,,
{12}
1b,2,3,4h[12:2]/5,6,7,8<6[16:1]/5x,5,4,3,2,1,
{48}1xp8[12:2]/E5,B5,B6,E7,{12},,7,6,5,5<7[16:1]/8x,8,1,2,3,4,
{48}3xp1[12:2]/E6,B6,B7,E8,{12},,8,7,6,6<8[16:1]/1x,1,2,3,4,5,
{48}6pp1[12:2]/E5,E4,E3,E2,{12},,1,2,3,{24}4,5,3,5,2,5,1,6,8,7,8xv3[12:8],7x<4[24:15],
{1},7-1-6-2-5-3[12:7],
{12}
8h[12:3],,,2h[12:3],,,6h[12:3],,,4h[12:3],,,
E6,E7,E8,E4,E3,E2,Chf[12:3],,,,,,
4bx-2[16:1],4bx-6[16:1],4bx-1[12:1],4bx-7[12:1],4bx-8[12:1],4bx>5[12:3],,,,,,,
{24}
C,,,,,,1b-3-5[12:1]/5b,,6,,7,,6-8-4[12:1]/1,,,,7,5,6,,2,,3,4,
2-4-6[12:1],,,5,1-5[12:1],6,2x<7[12:1],,8,,1,,2-4-6[12:1],,6,,5,,24,,,,7,,
1<6[12:1]/2,,,,2,,3-1-5[12:1]/1,,4,,5,,6<2[12:1]/3,,,,7,3,6,,,,3,7,
1-3[24:1],,7-5[24:1],4,8-4[24:1],,1x,,7x,,8x,,6,6,2,2,8,8,{96}2bx,D2,A1,D1,A8,D8,A7,D7,A6,D6,A5,D5,A4,,,,,,,,,,,,
{24}
4xv1[12:1]/3,,6,5,6,,8-6-4[12:1]/4,,7,,6,,3-1-5[12:1]/8,,,,2,4,3,,7,,6,4,
7-5-3[12:1],,,4,8-4[12:1],3,7>2[12:1],,1,,8,,7-5-3[12:1],,3,,5,4,7,,,,1,7,
{48}B2,Ch[48:2],{24},,,8x,2,{48}B7,Ch[48:2],{24},,,1x,8,{48}B1,Ch[48:2],{24},,,8x,,71,,53,,82,,
{48}3bx/5bx,2,1,8,7,6,5,4,{24}3x/8x-4[12:1],,2h[12:1],,,,8,,1,1,7,7,5,5,8b,,7b/5b,,2b/4b,,
5b<8[12:1]/3b,,3,4,3,,1-5[12:1]/5,,2,,3,,4<2[8:1]/1,,3,,2,,8-4[12:1]/4,,,,6,,
3>8[12:1]/8,,2,,1,,4-1[12:1]/3,,5,,6,,4/5-8[12:1],,6,,7,,5/1h[12:1],,,,8h[12:1]/4,,
6x<8[24:1],,1-5[24:1]/5,,4>2[24:1]/2,,5b/6b,,1b/2b,,8b/4b,,Cf,,,,,,,,,,,,
{12}
E7,B7,B8,B1,B2,E3,B6,B7,B8,B1,B2,B3,
B6,E7,A7,A2,E3,B3,E6,B6,B7,B2,B3,E4,
B5,B6,E7,E2,B2,B3,E5,B5,B6,B2,B3,E4,
E6,E7,E8,E1,,,A6,A7,A8,A1,,,
{48}6,5,4,3<6[48:69],{12},,,,,,,,,
&inote_6=(76)
{1},
{4}3,4,5,6,2,1,8,7,
{12}1-5[12:2],8,7,6h[12:2],,,8qq8[12:2],1,2,3h[12:2],,,
3qq5[12:3],4,5,6h[12:2],,,7,6,45,2/7,,,
1b>4[12:1]/6,2,2,6<1[12:1],5,5,2p5[12:2],3,3,2h[12:3],,,
6<1[12:1],5,4,3<6[12:1],2,1,8w4[12:2],7,6,,,,
8<5[12:1],7,7,3>8[12:1],4,4,7q4[12:2],6,6,7h[12:3],,,
3>8[12:1],4,5,6>3[12:1],7,8,1w5[12:2],2,3,,,,
2z6[12:2],1,8,7h[12:3],,,5s1[12:2],4,3,2h[12:2],,,
3<5[12:1],,5,6,,7,2>6[12:2],6,7,8,,,
4>2[12:1],,5,6,7,8,1>5[12:2],,6,7,,8,
7>1[12:1],,6,5-8[12:1],,3>1[16:1],3q5[12:2],,,,,,
6h[12:1],,3,7h[12:1],,2q6[12:1],6q2[12:1],,,,,,
3V52[12:2],2,1,8,7,6,5V36[12:2],8,1,2,,,
7V16[12:2],1,2,3,4,5,4V25[12:2],8,7,6,,7,
8>2[12:1],,3,3q6[12:3],,8,7,,,7,1,3,
5<8[12:1],6,7,5>2[12:1],4,3,5qq6[12:2],,,2pp1[12:2],,,
7bqq8[12:2],,7,3qq4[12:2],,4pp3[12:2],7h[12:3],,,,,8,
2pp1[12:2],,2,6pp5[12:2],,5qq6[12:2],2h[12:3],,,,,3<6[12:1],
6-3[12:1],,7,8,,6>3[12:1],3p6[12:1],,,1,2,3,
2h[12:1],3h[12:1],4h[12:1],5h[12:1],6h[12:1],7h[12:1],1bw5[12:1],,,1b,,37,
{24}4,5,2,5,4,7,1b-5[12:1],8,2,7,3,6,
{24}
1b<6[12:1],,,3,4,2,1pp8[12:2],,2,,3,,6h[12:1],,,,7,,2/5,,3,,6,4,
8>3[12:1],,,6,5,7,8qq1[12:2],,7,,6,,4qq5[12:2],,3,,2,,7h[12:2],,,,,,
8>3[12:1],,,,7,,6q2[12:1],,5,,4,,3>7[12:1],,,,4,6,3,,,,6,4,
5qq2[12:2],,4,,6,3,5h[12:2],,,,,,5w1[8:1],1,6,2,7,3,5b,,,,,,
8>3[12:1]/4,,,6,5,7,8qq1[12:2],,7,,6,,3h[12:1],,,,2,,7/4,,6,,3,5,
1<6[12:1],,,3,4,2,1qq6[12:3],,2,,3,,4h[12:1],,,,4,3,2h[12:1],,,,7,1,
5h[12:1],,,,2,8,4h[12:1],,,,8,1,6h[12:1],,,,1,,28,,46,,17,,
3qq6[12:2]/5,,6,,2,4,3h[12:2],,,,,,3,5,1,5,7,5,1b,,3b/5b,,2b/8b,,
4b>1[12:1]/5b,,6,5,6,,8-4[12:1],,7,,6,,5>7[8:1],,6,,6,,1-5[12:1],,,,3,,
{12}
1b,2,3,4h[12:2]/5,6,7,8<6[16:1]/5,5,4,3,2,1,
{48}1p8[12:2]/5,6,7,8,{12},,7,6,5,5<7[16:1]/8,8,1,2,3,4,
{48}3p1[12:2]/5,6,7,8,{12},,8,7,6,6<8[16:1]/1,1,2,3,4,5,
{48}6pp1[12:2]/5,4,3,2,{12},,1,2,3,{24}4,5,3,5,2,5,1,6,8,7,8v3[12:8],7<4[24:15],
{1},7qq3[12:7],
{12}
8h[12:3],,,2h[12:3],,,6h[12:3],,,4h[12:3],,,
6,7,8,4,3,2,5h[12:3],,,,,,
4b-2[16:1],4b-6[16:1],4b-1[12:1],4b-7[12:1],4b-8[12:1],4b>5[12:3],,,,,,,
{24}
1,,,,,,1bV35[12:1]/5b,,6,,7,,6V84[12:1]/1,,,,7,5,6,,2,,3,4,
2V46[12:1],,,5,1-5[12:1],6,2<7[12:1],,8,,1,,2V46[12:1],,6,,5,,24,,,,7,,
1<6[12:1]/2,,,,2,,3V15[12:1]/1,,4,,5,,6<2[12:1]/3,,,,7,3,6,,,,3,7,
1-3[24:1],,7-5[24:1],4,8-4[24:1],,1,,7,,8,,6,6,2,2,8,8,{48}
2b,1,8,7,6,5,4,3,2,,,,
{24}
4v1[12:1]/3,,6,5,6,,8V64[12:1]/4,,7,,6,,3V15[12:1]/8,,,,2,4,3,,7,,6,4,
7V53[12:1],,,4,8-4[12:1],3,7>2[12:1],,1,,8,,7V53[12:1],,3,,5,4,7,,,,1,7,
{48}2,3h[48:2],{24},,,8,2,{48}7,6h[48:2],{24},,,1,8,{48}2,3h[48:2],{24},,,8,,71,,53,,82,,
{48}3b/5b,2,1,8,7,6,5,4,{24}3/8-4[12:1],,2h[12:1],,,,8,,1,1,7,7,5,5,8b,,7b/5b,,2b/4b,,
5b<8[12:1]/3b,,3,4,3,,1-5[12:1]/5,,2,,3,,4<2[8:1]/1,,3,,2,,8-4[12:1]/4,,,,6,,
3>8[12:1]/8,,2,,1,,4-1[12:1]/3,,5,,6,,4/5-8[12:1],,6,,7,,5/1h[12:1],,,,8h[12:1]/4,,
6<8[24:1],,1-5[24:1]/5,,4>2[24:1]/2,,5b/6b,,1b/2b,,8b/4b,,1,,,,,,,,,,,,
{12}
6-1[4:1],,,,,,2-5[4:1],,,,,,
6z2[4:1],,,,,,1s5[4:1],,,,,,
6pp5[4:1],,,,,,2pp1[4:1],,,,,,
5,6,7,8,,,4,3,2,1,,,
{48}6,5,4,3<6[48:69],{12},,,,,,,,,
