&title=ノンフィクション!!
&artist=Liella!
&first=0.105
&des=三星
&lv_5=13+
&inote_5=(232)
{16},,,5x-1[130#8:7]`5?-2[130#8:7]`5?-8[130#8:7],,,,,
{1},,
{4}2bh[4:3],B4,,B6,7h[4:3],B5,,B3,{8}2h[4:1],,{16}5,,,5,4x,,,,7,,,,{4}3h[4:1],5,{16}4,,,4,6x,,,,
{4}2z6[2:1],6,,7,8z4[2:1],4,,3,
{4}2h[4:1],{16}4x,,,4,6x-2[2:1],,,6,8x-4[4:1]b,,,,{4},,
{12}1x,2x,3x,8x,7x,6x,
{4}1bxpp5[2:1]b,8x,,7x,6,64,{16}3,,,3,5x,,,5,1,,,,18,,,,2,,,2,4hx[4:1],,,,5,,,5,7,,,7,8>3[8:1],,,,7x,,,,
{4}6b,{16}64,,,6,2,,,2,4hx[4:1],,,,1,,,1,6x,,,6,3,,,3,8x,,,8,{4}2,25,{16}4,,,4,7,,,7,{4}3b>8[8:1],8x,6b<1[8:1],1xp8[2:3],3xq7[4:5],,,,,,,18,
{4}2bh[4:1],1,3h[2:1]/4,5,,6,56,7x,3h[4:1],1,84,7h[4:1],{8},3x,{4}6x,46,B7/B8,3,2,18,6h[2:1],,8,15,2x,{16}3,,,,5,,,5x,2,,,,7,,,7x,1,,,1x,{4}5h[2:1],B7/B8,B3f/B4,
{4}2b,{16}5x,,,5,3x,,,3,6x,,,6,4x,,,4,7x,,,7,5x>2[8:1],,,,6,,,,8x,,,8,1,,,1,7x-3[8:1],,,,4x>5[4:1],,,4,{4},,4x/5x,3,
{6}2h[6:1],4h[6:1],3h[6:1],7h[6:1],5h[6:1],6h[6:1],1h[6:1],2h[6:1],3h[6:1],{4}4x-1[8:1]/5x-8[8:1],,{16}2x,,,2,6x,,,6,3x,,,3,7x,,,7,1x,,,1,5x-3[8:1],,,5,3x-7[8:1]b,,,,
{4},1h[4:3],E6,,E7,8h[4:3],E4,,E3,1>4[4:1],,7<4[4:1],{8},2-4-1-5[2:1],,,6,,6,,{4}7>4[2:1],7h[8:3],,,2<5[2:1],2h[8:3],,,6-1-5[2:1],6h[8:3],,,4,4-1[2:1],{8},3h[8:3],,,,,
{4}8bq2[2:1],2,,3,4p2[2:1],1,,8,7v6-4[2:1],3,2q7[8:3],{8},8h[8:3],,,,,{16}1,,,1,5,,,,
{4}4b/6b,{16}34,,,1,2,,,,38,,,,{4}27,{16}56,,,8,7,,,,16,,,,
{4}27,{16}3x,,,3,8x,,,4,7x,,,5,6x,,,8,5x,,,1,{12}7x,6x,5x,{24}8x,7x,6x,5x,4x,3x,{8}2xv8>4[1:1]/6,2x/6xqq4b[8:7],,,,,,,
{12},,,,,,35,,,4/7,,,
{12}2b-5[8:1]/6b,,,1,,,8,,8-4-7-5[12:7],,,5,,,,1,,,3,,,8,,,
{12}26,,,{16}45,,4h[8:2],,,,3-8[8:1],,,,5-2[8:1],,,,7-4[8:1],,,,1,,,,,,28,,,,
{12}7b-4[8:1]/3b,,,8,,,1,,1-5-2-4[12:7],,,4,,,,8,,,6,,,1,,,
{12}73,,,{16}54,,5h[8:2],,,,6-4[8:1],,,,8b<5p4>1[8:6],,,,3b,,,,1b,,,,,,,,,,
{12}2x-7[8:1]/8x,,,5q1[8:1],,5,4xh[4:1],,,,,,
{12}4v7[8:1]/7,,,6V84[4:1],,6,1xh[4:1],,,,,,
{12}6/1-7[8:1],,,4-8[8:1],,4,2xh[4:1],,,,,,
{12}3v8[8:1]/7v4[8:1],,,37,,,15,26,37,4xz8b[2:1]/8x,,,
{12}4b-1[4:1],,,,,,,,,A2/D3/A3/A6f/D7/D6,,,
{12}1/7-5[8:1],,,1,,,8-4[8:1]/1,,,1,,,
{12}8/2-4[8:1],,,8,,,1-5[8:1]/8,,,8,,,
{12}3,4,2,6,5,7,1,8v2V86[12:20],2v8V24[12:19],7,,,
{12}Cf,,,,,,,,,,,,
{16},,,,,,,,,,,,7h[8:2],,,,
6,,,,65,,,,4,,4>1[8:1],,,,8,,
8v5[12:3]*v2[12:3],,,,,,,,,,,,16,,,,
{16}7b/8b,,,,2h[8:2]/5,,,,3,,,,34,,,,5,,5-7[8:1],,,,4,,,,,,2h[8:2],,,,
3b,,,,34,,,,5,,5<8[8:1],,,,1,,
1bw5b[8:1],,,,,,,,8bw4b[8:1],,,,,,,,
{16}2b/6b,,,,7h[8:2]/4,,,,6,,,,65,,,,4,,4-1[8:1],,,,5,,,,,,7h[8:2],,,,
5,,,,64,,,,5,,5<8[8:1],,,,,,
1v4[12:3]*v7[12:3],,,,,,,,,,,,83,,,,
{16}2/1,,,,7hb[8:2]/4b,,,,6,,,,65,,,,4,,4h[8:2],,,,{12}7,7,5,6,1,5,2,
{12}4,,,{24}5pp4[12:12]/3qq4[12:12],,,,,,,
{4},,,,,,,,,,,,,8xv1[8:1]*v1[8:1],,,,,,
