&title=Unveiled
&artist=ナナホシ管弦楽団
&first=0.75
&des_1=Ragna
&des_2=Ragna
&des_3=Ragna
&des_4=Ragna
&des_5=Ragna
&lv_5=13+
&des_6=Ragna
&des_7=Ragna
&des=Ragna
&wholebpm=165
&demo_seek=47.3
&demo_len=24.8
&inote_5=(165){16}
2-5[8:1]/7-3[8:1],,,,27,,,,
1b/6b,,16,,2,4h[8:1],,3,5,4h[8:1],,6,5h[8:1],,7,,
84,,84,,7,5h[8:1],,6,4,5,3,4,2h[8:1],,1,,
38,,38,,7,5h[8:1],,6,4,5h[8:1],,3,4h[8:1],,2,,
15,,15,,2,4h[8:1],,3,5,4,6,5,7h[8:1],,8,,
26,,26,,3,4h[8:1],,2,5,1h[8:1],,6,8h[8:1],,7,,
16,,16,,7,5h[8:1],,6,4,7,3,8,2h[8:1],,1,,
73,,73,,6,5h[8:1],,7,4,8h[8:1],,3,{8}1h[8:1],2,
8bz4[16:5]/3bV16[16:5],8b/3b,,,,,,5,
7h[4:1]/4,,5h[8:3],,6,6,,4/5h[8:3],
,2,3h[4:1],4,5h[4:1],2,4h[4:1],5,
6h[4:1],,5h[8:3],,7,7,,4h[8:2]/6,
,5,5,3h[4:1],,4h[4:1],,2,
3h[8:2]/5,,6,6,4,4h[4:1],,7h[8:3],
,5,4h[4:1],5,6h[4:1],5,3h[4:1],5,
7h[4:1],,4h[8:3],,5,5,,6h[8:2]/2,
,4,4,7h[4:1],,5,64,,{16}
25,,3,4,3,4,3,4,2,5,2,5,2,,71,,
,,6,5,6,5,6,5,7,4,7,4,7,,28,,
,,3,4,3,4,3,4,2,5,2,5,2,,71,,
,,24,,35,,46,,5/7h[4:1],,,,8,,16,,
,,2,5,2,5,2,5,4,6,4,6,4,,38,,
,,7,4,7,4,7,4,5,3,5,3,5,,16,,
,,2,5,2,5,2,5,4,6,4,6,4,,38,,{8}
8b-3[8:1]/3,,1b-6[8:1]/8,,7b-4[8:1]/1,,7/3b,,
1^4[2:1]/5,,5,,5,,5,,
6h[4:1]/5,,4,,3h[4:1]/5,,4,,
5^8[2:1]/4,,4,,4,,4,,
8h[4:1]/4,,1,27,,45,45,{16}3,4,
2,,6,5,7,,3,4,2,,6,5,7,,3,4,1,,6,5,8,,3,4,1,,26,,,,7h[4:1]/3,,
,,1,,62,,3,,5,4,5,,27,,,,{8}3b/8b,3b/8b,3b/8b,,
2-5[8:1]/7-3[8:1],,27,,1b/7b,,34,45,
65,7-3[8:1]/8-4[8:1],,78,,2-6[8:1]/5-7[8:1],1,2/5^2[8:1],
,8,8h[8:1],{16}1,7,{8}1,2-5[8:1]/6v1[8:1],,26,
,84,73,6h[4:3]/2,,7b,5b,8b,
4b,1b,25,4,2-4[8:1],5,2-5[8:1],6,
2-6[8:1],7,2,8,1-5[8:1],7-3[8:1],1,7,
,24,35,46,7^4[8:1]/5,,7,1^6[8:1],
,1-5[8:1]/2,,14,,36,27,18,
2-5[8:1]/7-3[8:1],,27,,2b/8b,,65,45,
34,1-5[8:1]/2-6[8:1],,12,,4-2[8:1]/7-3[8:1],8,4^7[8:1]/7,
,1,1h[8:1],{16}8,2,{8}8,7v4[8:1]/3-8[8:1],,73,
,15,26,3h[8:5]/7,,1b,4b,8b,
5-7[8:1]*-1[8:1],,5,,8-6[8:1],,1-5[8:1],,
2-4[8:1],,7-5[8:1],,8-4[8:1],,1-3[8:1],,
6,6pp5[8:3],,4,4h[4:1],,,,{16}
3,5,2,6,1,7,{8}8,1b/6b,1b/6b,,,
2-5[8:1]/7-3[8:1],,27,,6b-1[8:1]/2b,,6/4h[4:1],,{12}
8,5,6,2,4,3,7,5,6,{16}3h[8:1],,4,2h[8:1],
,5,1,6,2,7,3,8,4-1[8:1],,1,,4,,5,,
8^3[8:1],7,,7,8,,5p4[4:1],,4,,3h[4:1],,,,,,{12}
2,4,3,7,5,6,{16}2V48[4:1],,4,,2,,,7,
7h[8:1],,1,,,,5,5h[16:3],,,2,2,4h[8:1],,1,1,
5h[8:1],,3,3,7h[8:1],,4,4,8h[8:1],,3,4,2h[8:1],,6,5,
7h[8:1],,2,4,1-5[8:1],,5v6[8:1]*-3[8:1],,1,,,,,,,,
2h[8:1]/5h[8:1],,,7h[8:1]/5h[8:1],,,{8}8s4[16:5]/2z6[16:5],2b/8b,,,,
,,,,4h[4:1]/6,,6,,
3h[4:1]/6,,6,,2^5[8:1]/6,,6,,
2^5[8:1]/6,,6,,6h[4:1]/4,,4,,
7h[4:1]/4,,4,,4h[4:1]/8,,5,36,
,18,18,{16}2,4,3,,7,5,6,,2,4,
3,,7,5,6,,1,4,3,,8,5,6,,1,4,
3,,26,,,,3h[4:1]/8,,,,4,,25,,1,,
7,8,7,,16,,,,8b/4b,,8b/4b,,8b/4b,,,,
2-5[8:1]/7-3[8:1],,,,27,,,,8b/2b,,,,3,4,3,5,
4,5,2-6[8:1],,,,2b/6b,,,,7-4[8:1]/5-1[8:1],,8,,5^8[8:1]/7,,
,,2,,2h[8:1],,1,3,{8}1,4v1[8:1]/8-5[8:1],,48,
,26,37,4/8h[4:3],,1b,6b,2b,
5b,3b,27,6,1^3[8:1],4,1^7[8:1],6,
1-5[8:1],4,1,6,8-3[8:1],7-4[8:1],8,7,
,25,16,87,1^4[8:1]/6,,1,8^3[8:1],
,7/8-4[8:1],,85,,36,27,18,{8}
2-5[8:1]/7-3[8:1],,27,,1b/7b,,24,45,
75,8^5[8:1]/1^3[8:1],,18,,2-5[8:1]/4-8[8:1],1,4^1[8:1]/2,
,7,7h[8:1],{16}8,6,{8}8,1v4[8:1]/5-8[8:1],,15,
,37,26,5/1h[8:5],,8b,3b,7b,
4-1[8:1]*-7[8:1],,4,,8-2[8:1],,7-3[8:1],,
6-4[8:1],,1-7[8:1],,2-6[8:1],,3-5[8:1],,
8,8,,65,6h[4:1]/5<3[2:1],,,,
5h[8:7],,,,4,4h[4:1],,,
54,54,,34,3h[4:1]/4>6[2:1],,,,
4h[8:7],,,,5,5h[4:1],,,
45,45,,75,7h[4:1]/5<3[2:1],,,,
5h[8:7],,,,4,4h[4:1],,,
54,54,,24,2h[4:1]/4-8[8:1],,,,
17,{16}2,6,3,5,4,,{8}3b/8b,3b/8b,,,
2-5[8:1]/7-3[8:1],,27,,{16}
2b/6b,,26,,3,4h[8:1],,2,6,4h[8:1],,7,2h[8:1],,4,,
15,,15,,6,4h[8:1],,7,3,4,2,6,5h[8:1],,8,,
37,,37,,6,5h[8:1],,7,3,5h[8:1],,2,7h[8:1],,5,,
84,,84,,3,5h[8:1],,2,6,5,7,3,4h[8:1],,2,,
17,,17,,2,4h[8:1],,3,6,4h[8:1],,5,2h[8:1],,7,,
18,,18,,7,3h[8:1],,4,2,6,5,7,3h[8:1],,1,,
28,,28,,7,5h[8:1],,6,3,5h[8:1],,4,{8}7h[8:1],2,
8b-4[8:1]/1bs5[8:1],8b/1b,,,,,,,
E
