&title=Odin
&artist=Gram
&first=1.615
&des=speckles
&lv_5=14
&inote_5={4}(200)6h[4:1],,4,5,
{2}2/8h[4:1],{4}5,3,
{2}2/7h[4:1],{8}5,4,5,2,
6,1,4,8,{2}4h[4:1],
{4}2/7h[4:1],{8}2,6,{4}4h[4:1],8,
6/1h[4:1],{8}6,3,{4}7h[4:1],2,
{2}4h[4:1]/3h[4:1],{8}7,6,5,4,
3h[4:3],6,5,4,6,6,{4}6,
5b/4b,{16}E8,B7,{8}B6,{4}1/4,4/5,
{16}8/B1,B2,B3,B4,{4}B5,7/1,3/4,
{16}3/B6,B7,B8,B1,{4}B2,{8}6/4,3/7,{4}2/8,
3h[8:1]/4h[8:1],3h[8:1]/5h[8:1],7h[8:1]/4h[8:1],{16}A6,B6,C,B2,
4b,B4,C,B8,{4},7/4,5/2,
{16}7,B7,C,B3,{4}A3,6/4,2/8,
{16}5/B4,B3,B2,E2,{4}A1,{8}6/3,1/8,4/6,3,
2/7,1,8/4,7/3,2/6,1/5,{16}3,7,3,7,
{8}3b,6,5,4,{4}3h[4:1],6,
2h[4:1],5,6h[4:1],8,
3h[2:1],6,{8}6,5,4,3,
{4}3h[4:3],{8}6,6,{2}6,
{4}1b,{8}6,5,{4}4h[4:1],5,
2,{8}7,8,{4}1h[4:1],3,
7h[2:1],2,{8}4,3,2,8,
7,4,3,2,1,3,{16}8,7,6,5,
{4}4/2xh[8:1],{8}5/2h[8:1],6x,{4}7/2xh[8:1],6/2h[8:1],
4b/7h[8:1],{8}3/7h[8:1],4x,{4}5/7h[8:1],2/7h[8:1],
5b/4h[8:1],6/4h[8:1],{8}7/4h[8:1],7,6/4h[8:1],5,
{4}3/8h[8:1],{8}4/8h[8:1],5,{4}4/8h[8:1],2/8h[8:1],
{16}5,4,5,2,5,2,5,2,5,4,5,3,5,2,5,1,
5b,1x,6x,1,6,1,6,1,5,1,5,1,5,1,6,1,
8,2,8,2,8,2,8,2,5,3,5,3,6,3,5,3,
{8}6,5,4/6,3,2/5,5,4/7,4,
{4}8b/Cfh[4:7],E2,{8}B3,E3,,E5,
{4}E6,{8}E8,B7,,E6,{4},{16}2/4x,
5x,6x,7,{8}3/8-2[16:1],3,{4}4/8-6[16:1],4/8,
{16}8/1,7,6,5,{8}3/4-7[16:1],3,{4}2/4v1[16:1],4/3,
{16}7/4b,3,{8}2,{4}4/5-7[16:1],{16}1/5,2,{8}3,{4}5/1-4[16:1],
{16}1/7,6,{8}5,{4}2/7-4[16:1],{16}7/3,2,{8}1,{16}6x/B2,7x/B3,8x/B4,1/B5,
{4}B6f/2bv5[16:1],{8}2/7-4[16:1],8,{4}3/7-1[16:1],7/2,
{16}4/6,3,2,1,{4}8-3[16:1],{16}7/8,6,{8}5,{4}5<8[16:1],
{16}5/4,3,{8}2,{4}2<7[16:1],{16}2/6,5,{8}4,6,5,
4/3,8/7,8/7,6/5,4/2,4/2,{16}8,7,8,7,
8x,1x,2x,3,4/8xv3[16:1],5,6,7,{4}5/8>3[16:1],8/6,
{16}8x/4,7x,6x,5,4/8x-5[16:1],3,2,1,8/B2,B3,{8}B4,{4}2x>5[16:1],
{16}2/B7,B8,{8}B1,{4}7x<4[16:1],{16}7/B6,B5,{8}B4,{4}3x>8[16:1],
{16}3/B4,C,{8}B8,{4}7x<4[16:1],{16}7/B3,C,{8}B7,{16},8x/4x,5x/1x,2x/6x,
{8}3/7x-5[16:1],7x,7x/2-5[16:1],2x,6x/2-8[16:1],6x,2/6,6x,
{16}6x,7x,{8}8x,1x/8<6[16:1],1x,{16}8/1x,2x,3x,4x,5x,8,4x,8,
3x,8,2,8,1,8,1,8,{32}2x,3,4,5,6,7,8,1,2,3,4,5,6,7,8,1,
{16}2/5,6,7,8,{4}1h[8:1],{16}4/6,3,2,1,{4}8h[8:1],
{1}6bh[1:1],
{2}1h[2:1],5h[2:1],
{1}3h[1:1],
{2}7h[2:1],5h[2:1],
{1}8h[1:1],
{2}2h[2:1],5h[2:1],
{1}4h[1:1],
6h[1:1],
1bh[1:1],
{2}4h[2:1],8h[2:1],
{1}6h[1:1],
{2}2h[2:1],8h[2:1],
3h[1:1],7,
{4}5h[2:1],2,8h[2:1],6,
7h[1:1],5,4,3,
1h[1:1],{8}8,8,{16}8,7,6,5,{4}4b,
6b,{8}4,4,{4}5h[4:1],7,
2,{8}7,6,{4}5h[4:1],2,
3,5,{8}7,6,2,3,
4,7,6,5,{2}3h[4:1],
{8}8,1,2,3,{4}4h[4:1],6,
8,{8}3,2,{4}1h[4:1],7,
5,5,{8}4,6,3,6,
4,3,2,7,6,5,4,4,
{4}6b/3h[8:1],{8}8/3h[8:1],7,{4}6/3h[8:1],7/3h[8:1],
4/6h[8:1],{8}1/6h[8:1],2,{4}3/6h[8:1],1/6h[8:1],
8/2h[8:1],6/2h[8:1],{8}5/2h[8:1],5,4/2h[8:1],4,
5/7h[8:1],5,2/7h[8:1],2,3/7h[8:1],3,{16}4,5,{8}4,
{16}3,6,4,5,4,6,3,5,2,7,2,7,2,7,2,7,
1b,5,2,5,3,5,4,5,4,5,4,5,4,6,3,7,
{32}1,2,3,4,5,6,7,8,1,2,3,4,5,6,7,8,1,2,3,4,5,6,7,8,1,2,3,4,5,6,7,8,
{8}1,6,6,3,7,5,{4}8/1,
{16}8/2,7,6,5,{8}4-8[16:1],5,{16}E2/4-7[16:1],B2,{8}B3,{16}4/D2,A2,{8}D3,
{16}1,2,3,4,{8}5>2[16:1],5,{16}E1/5v2[16:1],B8,{8}B7,{16}5/A8,D8,{8}A7,
{16}5b,6,7,8,{8}1-5[16:1],1-6[16:1],{16}1-4[16:1],B5,,E7,,B3,{8}8,
{16}8/2x,7,6,5,8,1,2,3,4x,5x,6,7,8,8,8,8,
8,1x,2,3,{4}4-7[16:1],{16}C/4-1[16:1],B8,{8}A8,{16}4/C,B8,{8}A8,
{16}5x,4x,3x,2,{4}1-6[16:1],{16}C/1-4[16:1],B5,{8}A5,{16}1/C,B5,{8}A5,
{16}8/4,7/3,6/2,5/1,4,3,2,1,{8}8/4,6/2,1-5[16:1],8-4[16:1],
1-3[16:1],8-6[16:1],1v6[16:1],8v3[16:1],1,8,{16}4x,4x,4x,4x,
4bx,5x,6x,7,{4}8<5[16:3],{16}8/4,3,2,1,4,3,2,1,
{4}8>3[4:1],{16}8/4,5,6,7,,4,5,6,7,5x,6x,7,
{8}8/3b>8[16:1],4,{4}3,{16}7,6,1,2,6,5,2,3,
7,6,5x/2,3,8/4x,7,1/6x,2,5/3x,6,{8}7bx,{16}5x,5,5,5,
5,4,3,2,{8}1-3[16:1],1x,{16}7x/1q5[16:1],6,{8}5,{16}1/8x,7,{8}6,
{16}5x,6x,7x,8x,{8}1-7[16:1],1x,{16}3/1p5[16:1],4,{8}5,{16}1/2,3,{8}4,
{16}8,1,8,1,8,1,7,1,8,1,7,1,8,1,{8}8,
{16}5/8,4,3,2,{4}1h[8:1],{16}8/2,7,6,5,{4}4/8b,
5b,{8}4,4,{2}5h[4:1]/6h[4:1],
{4}2,{8}7,6,{4}5h[8:1]/3h[8:1],3h[8:1]/5h[8:1],
3,5,{8}5h[8:1],4,2,3,
4/5,7,6,5,{4}4h[8:1]/3h[8:1],{16}5,4,5,4,
{8}8,1,2,3,{2}4h[4:1]/6h[4:1],
{4}8/5,{8}3,2,{4}7h[8:1]/1h[8:1],7h[8:1]/1h[8:1],
5/3,5,{8}1h[16:1],6,3/4,6/5,
4/3,3/4,2/1,1/2,{32}8/7,6,5,4,3,2,1,8,7/3,4,5,6,7,8,1,2,
{4}3/5b,{8}8,8,{4}1h[4:1],3,
6,{8}3,2,{4}1h[4:1],6,
7,1,{8}3,2,6,7,
8,3,2,1,{2}7h[4:1],
{8}4,5,6,7,{4}8h[4:1],2,
4,{8}7,6,{4}5h[4:1],3,
1,1,{8}8,2,7,2,
8,7,6,3,2,1,8,8,
{1}1w5[4.8##0.075],
