&title=UFD
&artist=cybermiso
&first=0.15
&lv_5=14
&des_5=Akarizu
&inote_5=
(180){4},{8},3,,,,,,4,
,,,,,,5,
,,,,,,6,
,,,,,,,,{4}6/5,
,,5/4,
,,{2}3/4,
{4},6/3,,,{1}2h[4:3]/7h[4:3],
{8}6h[1:1],5,4,3,,,{4}3,
{8}3,6h[4:3],,3,,4,,,{4}5/6h[8:7],
5,5,4,
5h[2:1],4,4,5,
6h[8:3],{8}5,4h[8:3],,,{4}6h[2:1],
5,5,{8}7h[4:9],,,3,
{1}2h[4:7],
,7b<2[2:3]/2b>7[16:25],
{8},,,,,,,,3,
3,4,4,5,5,6,6,
{16}4,5,4,5,3,6,3,6,2,7,3,5,{4}1b,
{8}7-3[8:1],3-7[8:1],7,1-5-2[4:1],,,,,8-4[8:1],
4-8[8:1],8,2-6-3[4:1],,,,,7-3[8:1],
3-7[8:1],7,1-5-2[4:1],,,,,6-2[8:1],
2-6[8:1],6,8-4[8:1],,8,{4}6,
{8}2-6[8:1],6-2[8:1],2,8-4-7[4:1],,,,,1-5[8:1],
5-1[8:1],1,7-3-6[4:1],,,,,2-6[8:1],
6-2[8:1],2,8-4-7[4:1],,,,,3-7[8:1],
7-3[8:1],3,1-5[8:1],,1,{4}3,
{8}7-3[8:1],3-7[8:1],7,1-5-2[4:1],,1/5,{4}7,
{8}8-4[8:1],4-8[8:1],8,2-6-3[4:1],,2/6,{4}8,
{8}7-3[8:1],3-7[8:1],7,1-5-2[4:1],,1/5,{4}7,
{8}7-3[8:1],3-7[8:1],7,1-5[8:1],,1/5,6,7/3,
2-6[8:1],6-2[8:1],2,8-4-7[4:1],,8/4,{4}2,
{8}1-5[8:1],5-1[8:1],1,7-3-6[4:1],,7/3,2,1,
8/2,2,7/3,7,4/6,4,5/3,5,
{16}3,4,3,4,2,5,2,5,1,6,4,8,{4}2b,
{8}8/1-5[8:1],2/7-4[8:1],1,7,{16}2,8,{8}2,{4}1/7,
{8}2/8,2,7,3V51[4:1],{2}6-8[8:1],
{8}1/8-4[8:1],7/2-5[8:1],8,2,{16}7,1,{8}7,{4}8/2,
5/2-6[8:1],2/1-5[8:1],1/8-4[8:1],8/7,
{8}7/2-5[8:1],1/8-4[8:1],2,8,{16}1,6,{8}1,{4}2/7,
{8}8/2,8,3,7V51[4:1],{2}7/4-2[8:1],
{8}2/7-4[8:1],8/1-5[8:1],7,1,{16}8,3,{8}8,{4}7/2,
1/7-3[8:1],7/8-4[8:1],8/1-5[8:1],1/2,
{8}2v8[8:1],8q4[8:1],2,6h[4:1],{16},,3,6,{4}1,
{8}2/8,2,7,7/3V51[4:1],{2}6-8[8:1],
{8}3v5[8:1],5p1[8:1],3,7h[4:1],{16},,2,7,{4}4,
{8}8/7-3[8:1],6,{4}7/8-4[8:1],8/1-5[8:1],2/1,
{8}2-4[8:1],4-8[8:1],6,8>2[8:1],{16},,7,6,{4}5,
{8}6/4,6,3,7V15[4:1],{2}7/2-4[8:1],
{8}4/7,4,5/2,2,7/4,6,2/5,3,
{16}4,5,3,6,2,7,1,8,{32}2,3,4,5,6,7,8,1,{4}2b/C,
{16}7v1[8:1]/3v1[8:1],,,7/3,,,,,{8}2/8-4[8:1],{16}1,7,{4}8V64[4:1]*V24[4:1],
{2}8,{16}5/2,5/2,,7/4,{8}7/4,3,
8/2-5[8:1],1-6[8:1],2,1,{16}4,4,,3/7,{8}3/7,6/2,
{4}5-7[8:1]/1-3[8:1],1-6[8:1]/5-2[8:1],1-5[8:1]/5-1[8:1],1/5,
{16}8,1,8,1,{4}7<1[16:3],{32},,,,,,,,8,7,6,5,{8}4,
1-5[8:1],{16}8,2,{4}1V75[4:1]*V35[4:1],{2}1,
{8}8-3-7-4[2:1],8,3,3,2,2,1,1,
{4}4-2[8:1]/8-6[8:1],8-3[8:1]/4-7[8:1],8-4[8:1]/4-8[8:1],8/4,
{16}3-6[8:1]/7-2[8:1],,,3/7,,,,,4,8,4,8,{4}4-8[8:1],
{8}4V27[16:3]/8V63[16:3],,,,,4,{4}5/3,
{8}7/4,4/7,5/2,5/2,{16}7/4,7/4,,6/2,{8}2/6,4/8,
{4}2-4[8:1]/6-8[8:1],2-8[8:1]/6-4[8:1],2-6[8:1]/6-2[8:1],2/6,
{16}3v5[8:1]/7v5[8:1],,,3/7,,,,,{8}6/4-8[8:1],{16}5,3,{4}4V28[4:1]*V68[4:1],
{2}4,{16}2/8,2/8,,1/7,{4}7/1,
{8}1/8,1,2/1,2,2/3,3,3/4,4,
{16}5,5,6,6,7,7,8,8,{32}1,2,3,4,5,6,7,8,{4}1/C,
{8}7-3[8:1],1,{4}7/2-6[8:1],{8}8,1w5[8:1],,1,
{16},,,,1,8,{8}7h[8:3],{16},,,,1,2/6,{8}3/5,
{16}8/7,,,6,4,,,3,5,3,4,2,{8}4-1[8:1],1,
{4}4/8-5[8:1],8/2-7[8:1],2/6-3[8:1],6,
5/4,8/1,{16}8/1,7/2,6/3,5/4,,,{8}8/1h[8:3],
{16},,,,8,7,{8}6h[8:3],{16},,,,1,2/5,{8}3/4,
{16}8,,,1/7,,7/1,,,5,4,,6,{8}5-8[8:1],7,
{4}5/1-4[8:1],1/7-2[8:1],7/3-6[8:1],3,
2v5[8:1]*-7[8:1],2,{16}8,1,2-5[8:1]*-6[8:1],3,{8}4,2,
{16},,,,8,7,{8}6h[8:3],{16},,,,2,7/3,{8}8/4,
7x/5x,7x,1/8,1,2/4,4,5/4-7[8:1],4/5,
{4}4/8-3[8:1],8/2-5[8:1],2/6-1[8:1],6,
{16}7<4[8:1]*-3[8:1],,,7,,,,,1,8,7,6,{4}5h[4:1]/1-5[8:1],
{8}1,{16}2,2,{8}4,3/5,{16}7/1,7/1,,8/2,{4}8/2,
{8}3/7,4,6/2,5,1/7,2,8/3,7,
{16}4,6,3,5,2,4,1,3,{32}8,7,6,5,4,3,2,1,{4}8/4h[4:1],
{32}5,6,7,8,1,2,3,4,{4}5xh[4:1],{8}1p5[8:1],{16}3,3,{4}1/4h[16:7],
{16},,,,3/8,2/7,1/6,5/8h[16:5],,,,,4>4[2:1],1/5,2/6,3/7,
{2}4/8,{16}8,8,7,7,6,6,{8}5h[8:1]/4h[8:1],
{16},,,,3b,3b,3b,2/4,,,{8}8/1,{16},7/5h[16:3],{32},,,,4,
3,2,1,8,7,6,5,{4}4xh[4:1],{8}8q4[8:1],{16}6,6,{4}8/5h[4:1],
{16},,,,2/5,6/3,7/4,5/8,{4}1h[4:1],{16}5,4/7,6/3,5/2,
{4}4/1-4-7-2-5[2:1],{8}7,6h[8:3],,,,7,
8/3,{16}4,4,{8}5,6/2,{16}7,1,5,3,{4}8h[4:1],
{32}1,2,3,4,5,6,7,8,{4}1xh[4:1],{8}4-7[8:1],3-8[8:1],4,3,
{16},,,,7/3,6/2,5/1,8/4h[16:5],,,,,8,5/1,6/2,7/3,
{1}4-2-5-1-6-8[8:5]/8-6-1-5-2-4[8:5],
{4}7-5[8:1]/3-1[8:1],7-4[8:1]/3-8[8:1],7-3[8:1]/3-7[8:1],7/3,
{32}8,7,6,5,4,3,2,1,{4}8h[4:1],{8}5-2[8:1],6-1[8:1],5,6,
{16},,,,2/6,3/7,4/8,1/5h[16:5],,,,,,4/8,3/7,2/6,
{8}1/5,5/1,3/7,7/3,{16}5,6,5,6,3,4,3,4,
{32}5/B1,6,7,8,1,2,3,4,5/B3,6,7,8,1,2,3,4,5/B6,6,7,8,1,2,3,4,{4}1bqq5[2:5]/5bqq1[2:5],
{1}5b/1b,
E
