&title= "Betrayal Alice" (背叛的爱丽丝)
&artist=MYANSR (Artcore Remix)
&first=1.35
&des_1=SetDesigner
&des_2=SetDesigner
&des_3=SetDesigner
&des_4=SetDesigner
&des_5=アリクス
&lv_5=14
&des_6=SetDesigner
&des_7=SetDesigner
&des=SetDesigner
&inote_5=(189)
{8}E4,,C1,,E8,,,,
6h[8:4],,,,5,7h[8:2],,8,E5,,E7,,E1,,,,
5,4,3h[8:4],2^7[8:2],,,,,
4h[16:6],,,5h[8:3],,,6,,78,,,81,,,1<6[8:2]/2,,3,4,5-1[8:1],,,,7x/3x,,
2,3,4,6,7h[8:2],,1,1,8,7,2,3,6,5,{16}7,8,1,2,{8}3-5-1[8:4],,,,1-3-5[8:4],,,,8x-5[8:4]b,,,,,,,,
2,3,7,8,4h[8:2],,5,6,2,2,3,7,4,5,{16}2,1,8,7,{8}6-4-8[8:4],,,,8-6-4[8:4],,,,1<2[8:4]b,,,,,,C1h[8:2],,
1b,1,8,72,,3,4,5,35,2,1,7h[8:1],8h[8:1],6,54,2,2-5[8:1],1,2,7,,{16}8x,7x,6x-1[8:1],,1,,2-6[8:1],,3,,8,,,,8h[16:3],,,7h[16:3],,,A1,,
{8}2,4,3,35,,{16}6x,5x,4x-8[8:1],,3,,7-3[8:1],,7,,2,,2,,1,,8,8,3,,64,,
{8}2-4[8:1],4-6[8:1],2,8,1-7[8:1],7-5[8:1],1,3,2,2,2,62,6,75,64,53,
2b-5[8:1],1-6[8:1],2,1>4[8:2],,8,7,6,
5,6h[8:2],4,3h[8:2],7,8h[8:2],2,1,6-1[8:1],5-2[8:1],6,5-7-1[8:2],,
{16}1x,2x,3x-5[8:1],,3,,7-3[8:1],,7,,2,,1,,8h[16:3],,,6h[16:3],,,A4,,
{8}7p3[8:1],3,1,1,,{16}8x/2,7/3x,6x-1[8:1]/4,,5,,2-6[8:1],,3,,7,,8,,1,,1x,8x/2,7/3x,,C1,,7b/3b,,1bh[8:5]/5hb[8:5],,,,,,,,,,,,,,
3,4,2,4,3h[8:2],,8,,6,5,7,5,6h[8:2],,1,,E3f/B2/B3,,,,
{16}
7-1-3-8[8:4],5,7,5,7bx,,,,4,,,,1x-3-5[8:4],,,,,,8,7,6-8[8:1]b,,,,,,,,E2/B1/B2,,,,
6-8-2-7[8:4],4,6,4,6bx,,,,3,,,,E6,,B5,,B3,,E3,,8,,71,,2,5,3,6,A4,,A8,,2-4-6-3[8:4],6,2,6,2xb,,,,A8/E8/E1,,,,4x<8[8:2],,,2,4,,3,,
{24}A3,E4,B4,B5,E6,A6,,,,,,,{16}1x/5x,,,,2-8-6-1[8:4],4,2,4,2xb,,,,4,,,,E4,,E5,,E6,,E7,,E8,,2,4,3,5,4,6,
1b,,1,8,1,,1,7,1,,8,2,8,,8,3,8-5[8:1],,5-2[8:1],,8,,1-4-7[8:2]b,,8,,1,,5x,,,,
8b,,8,1,8,,8,2,8,,1,7,1,,1,6,1,,8,3,8<5[8:1],,5>2[8:1],,8,,1,,8,7,6,5,8x/4x,,8,1,8,,8,2,8,,1,7,1,,1,6,1>4[8:1],,4-7[8:1],,1,,8<5-2[8:2]b,,1,,8,,4x,,,,1b,,1,7,1,,8,2,8,,1,6,1,,8,3,8,,65,,54,,43,,1,8,2,7,{32}3,4,5,6,7,8,1,2,
{8}3bx/7xb-5-8-4-8-5-7[47.25#4:6],,,,,,,,5,,,,,,,,3h[8:16],,,,A4h[8:9],,,,,,,,,,,,,,,,,,,,1,,,,,,,,C1h[8:8],,,,,,,,,,,,2-6[8:1]b/6,,,,
8,,8,1,8,,8,{16}2,3,45,,,,5,,6,,5,,7,,5,,8,,5,,,,5,,4,,53,,,,5,,4,,5/3-1[8:1],,,,7-5[8:1],,,,4,,,,8,,2,3,45,,,,4,,6,,4,,,,4,,7,6,54,,,,4,,3,,4,,2,,4,,1,,4h[8:2],,,,5h[8:2],,,,6h[8:2],,,,8,,8,,E2,,E7,,E3,,E6,,4,,4,,5,,5,4,
{8}6,6,68,6,65,6,62,6,64,4,48,4,42,4,45,4,46,2,35,46,75,8,35,46,7hx[8:4]/5,,,,
{16}1,2,3,4,8>3[8:1],7,6,5,8b/4b-7[8:1],,,,4,,1-6[8:1],,2-5[8:1],,1,,2,,7,,8,,17,,26,,53,,4,6,5,6,3,5,4,5,2-5[8:1],1,2,1,2,,8,,7,,65,,74,,83,,2-8-3[8:2],,1x,,2,,6x,,4-7[8:1],,7-5[8:1],,4x,,1,,2,,3,,8,,71,,6,,4,5,4,,6,,78,,{24}3,4,5,6,,,{16}81,,2,4,3,5,4,,A6,,8h[8:1]/7hb[8:1],,,5hb[8:1]/4h[8:1],,,12,,3hb[8:1]/4h[8:1],,,8hb[8:1]/7h[8:1],,,45,,1bx/2xb,,3,4,5,,7,,2,8,2,8,{32}2,3,4,5,6,7,8,1,{8}2/6b-4-8[8:2],,1,3,,{16}2,2,2,,1h[8:1]/3h[8:1],,,,45,,45,,1,8,2,3,4,5,26,7,8,1,6>3[8:1]/2,,,8,6,,1,,2,,8,8,8,,1h[8:1]/7h[8:1],,,,3,4,3,,4,5,4,,5,6,5,,74,,2>5[8:1],,1,,2,,8<5[8:1]b,,,,3,2,1,,8,,4<7[8:1],,3,,4,,2>5[8:1]b,,,,7,8,1,,2,,
{8}6x,6,75,75,{16}4x,8,4,8,2x,6,2,6,1b,7,5,8,2b,4,1,5,
{32}2b,3,4,5,6,7,8,1,{16}6bx-1[8:1]/2bx-5[8:1],,,,C1f/B6/B2,,,,,,,,73,,,,73,,,,2,5,2,5,3,6,3,6,4,7,4,7,A5,,A6,,
{8}2h[8:2],1,7h[8:2],8,3,
{16}6,5,6,5,6,,4>2[8:1],,7x,,4<6[8:1],,1x,,4-1>2>5[8:2]b,,8x,,4,,7,,7b,,
6,8,6,,6,4,6,,2,4,2,,8,,1-5[8:1],,7-3[8:1]b,,1,,7,,8,,2,4,3,5,4,6,1x,,1,7,1,,8,2,8,,3,5,4,5,4,,6-2[8:1],,6,,2,,4bw8[8:1]b,,,,C1,,,,26,,
{8}2b/6b,,3-8[8:1]/5,4,35,,7,7,6h[8:2],5,2,3,84,73,{16}84,73,62,15,{8}8<5[8:1]/4,,4,3,2,{16}1,1,{8}1,82,{16}3,4,3,6,5,6,2,,18,,18,,3,4,3,,
2-5[8:1]/5,,1,,2/6-1[8:1]b,,7,,63,,,,2,,2,,
3h[8:2],,4,,7,,6,,15,,26,,15,26,73,84,1-3-5[8:2]/5,,,,8,,8,,8,,17,,A6/A2,,53,,
{16}4x,4,8,8,3x,7,3,7,{24}2x,6,2,6,2,6,{32}1b,8,7,6,5,4,3,2,5h[4:12]/1xbs5[8:28],,,,,,,,
E
