&title=crossing way
&artist=川田麻美
&first=0
&des=AMMR
&lv_5=13
&inote_5=(132){1},,
{8}5h[4:1],,,4h[8:3]/5h[8:3],,,,,
{8}3h[4:1],,,3h[8:3]/4h[8:3],,,,,
{8}6h[4:1],,,6h[8:3]/5h[8:3],,,,,
{8}2h[4:1],,,24,{24}3,4,3,4,3,4,3,4,3,4,3,4,
{8}2h[4:1],4,6h[4:1],4,3h[4:1],5,7h[4:1],5,
{8}3h[4:1],4,6h[4:1],5,2h[4:1],4,7h[4:1],5,
{8}4h[4:1],1,6h[4:1],1,3h[4:1],8,5h[4:1],8,
{16}3b-7[16:1],,,5b-1[16:1],,,4h[8:3],,,,,,7,,6,,
{4}3b/5b,4/2-5[8:1],4-8[8:1]/2,2-5[8:1]/4,
{8}4>5[4:1]*p5[4:1]/2,,,,,2-5[8:1]/4-7[8:1],3,42,
{4},5/7-4[8:1],5-1[8:1]/7,7-4[8:1]/5,
{8}5<4[4:1]*q4[4:1]/7,,,,,7-4[8:1]/5-2[8:1],8,57,
{4},5/2-6[8:1],2/5-8[8:1],5/2-6[8:1],
{8}5>5[32:9]*p5[32:9]/2,,,,,4V27[32:5]*V61[32:5],26,4b,
{8},,35,,7-4[8:1]/1-4[8:1],26,71,,
{8},26,15,84,75,65,34,25,
{8}6/1h[8:3],,,7,7<4[8:1],,,1p3[4:1],
{16}1,,,5,,,{8}7h[2:1],,,,1,
{8}1>4[8:1],,,6,6<1[8:1],,,4q2[4:1],
{16}4,,,8,,,{8}6h[2:1],,,,3,
{8}3>8[8:1],,,6,6>3[8:1],,,2q8[4:1],
{16}2,,,6,,,{8}4>6[8:3],,,,5,
{8}4,3,8/2-5[8:1],,6-1[8:1],,3q4[8:3],,
{8}5,6,7,8>3[8:1],,5,5p1[8:1],,
{8}7pp6[32:9],,2,3,4qq5[32:9],,6,7,
{16}8<5[16:3],,,5>2[16:3],,,{8}2qq5[32:13],,,5,4,
{8}3pp2[32:9],,6,7,8qq1[32:9],,2,3,
{16}4>1[16:3],,,1<6[16:3],,,{8}6qq2[32:13],,,1,8,
{8}7<3[16:3],,1,1q4[16:7]*p6[16:7],,,,,
{8},,5,34,15,,56,4/8<2[8:3],
{8},,1,,7V13[16:3],,5,5,
{8}6h[8:1],4h[8:1],5h[8:1],3,2h[8:1],4h[8:1],3h[8:1],5b,
{16}6h[8:1],,5,5,7h[8:1],,8q4[8:1],,,,6,,6,,5,4,
{16}6h[8:1],,5,7h[16:3],,,1>4[8:1],,5,,6,,7,,,,
{16}3h[8:1],,4,4,2h[8:1],,1p5[8:1],,,,3,,3,,4,5,
{16}3h[8:1],,4,2h[16:3],,,8<5[8:1],,4,,3,,2,,1,,
{8}8>4[8:1],7,6,,1<5[8:1],2,3,,
{16}8>4[8:1],,7,,6,,5,,35,,2,6,8,,53,,
{16}6-1[8:1],,,4,,,2,,6-1[8:1],,,4,,,2,,
{16}3-8[8:1],,,5,,,7,,3-8[8:1],,,5,,,7,,
{8}64,53,42,31,64,53,42,31,
{16}4b/6b,,2,,35,,7,,4,6,4,5,{32}2b,3,4,5,6,7,8,1,
{16}2b/4-8[16:1],,3<6[12:1],4b,,,{8}1/3bqq4[4:1],,34,5,6,
{16}7b/5-1[16:1],,6>3[12:1],5b,,,{8}8/6bpp5[4:1],,65,4,3,
{16}2b/4-8[16:1],,3<6[12:1],4b,,,{8}3b/1pp8[4:1],,18,7,6,
{16}5b/1q5[16:1],,7-3[12:1],1b,,,{8}6/7bqq8[4:1],,71,2,3,
{16}4b/1-5[16:1],,2<7[12:1],1b,,,{8}4/2bpp1[4:1],,28,7,6,
{4}5<8[8:1]/8>4[8:1],5qq8[8:3]/8,{16}1,,,7,,,5,,
{4}1bpp3[8:1]/5bpp7[8:1],51,{16}2-6[12:1],6,3,5,2b,,1,,
{8}48,3qq2[8:1]/7qq6[8:1],26,3b/7b,,3pp2[64:13]/7pp6[64:13],15,3b/7b,
{4},5-2[8:1]/3-6[8:1],3-7[8:1]/5-1[8:1],5-2[8:1]/3-6[8:1],
{8}3b<8[4:1]/5b>8[4:1],,,,,2-5[8:1]/6-3[8:1],35,26,
{4},4-7[8:1]/6-3[8:1],6-2[8:1]/4-8[8:1],4-7[8:1]/6-3[8:1],
{8}6b>1[4:1]/4b<1[4:1],,,,,7-4[8:1]/3-6[8:1],82,73,
{4},6-2[8:1]/3-7[8:1],3-8[8:1]/6-1[8:1],6V47[32:5]/3V52[32:5],
{8}3b<8[4:1]/6b>1[4:1],,,,,2V84[32:5]/7V15[32:5],45,2b/7b,
{8},,17,,4qq5[4:1]/6pp5[4:1],28,46,,
{8},28,35,17,46,28,{32}4w8[32:3],5,6,7,8,1,2,3,
{1}4b>5[4:7],,
{2},
E
